All Together Now Season 3 COMPLETE[Haydees]

Download All Together Now Season 3 COMPLETE[Haydees]

All the news about FC Barcelona sections, players, trainings, academy and much more Kevin Hart Jokes About Dwayne Johnson & black.sails.s04e03.720p.hdtv.x264-fleet[prime] Tom all together now season 3 complete[haydees] Hanks’ Presidential Bid: 6 Ask Me Why.

All Together Now Season 3 (1993)
Hard to find Season 3 image.
Genre : Comedy / Australian Sitcom
Number of Episodes : 31.
Bonus Features : None
File Size : 10.9 GB
In 1972, Bobby Rivers and his band Still Waters hit the top of the pop charts with a catchy little tune titled “Easy Street”. Bobby Rivers’ career became a mere shadow cast by the weak glow of his own fading star. In 1990, Bobby continues to live in a carefree fashion reminiscent of a time when long hair, love beads, incense, peace and harmony were the uniforms and moral badges of a generation. Now he’s been re-united with his children – twins Anna and Thomas, and it’s hard to know who has the hardest time adjusting to the new family. Production time: 1990 to 1993 German title: Rock’n’Roll Daddy Episodes: 3 seasons, 101 episodes Theme song: (small part) Yesterday was a memory, of might have been, But Rock and Roll never forgets, forgives or regrets, Nothing comes easy, try to get it all together now! Yesterday was your hair so long, an old love song, A photograph of you, singing the blues, Nothing comes easy, try to get it all together now!
If you have anything to ask or say, please leave me a comment and I shall reply
No screens added – Quality is the same as Season 1 and 2
Files:
All Together Now S3 E15 Turn the Page E16 Amigos Para Siempre.avi (721.9 MB)
All Together Now S3 E27 Like Sister and Brother.avi (410.3 MB)
All Together Now S3 E22 Money Makes the World Go Round.avi (396.5 MB)
All Together Now S3 E28 Old School Yard.avi (393.8 MB)
All Together Now S3 E29 Your Cheatin’ Heart.avi (392.9 MB)
All Together Now S3 E23 Stairway to Heaven.avi (390.5 MB)
All Together Now S3 E25 Just The Way You Are.avi (380.0 MB)
All Together Now S3 E26 We Are Family.avi (376.1 MB)
All Together Now S3 E09 Love is in the Air.avi (372.9 MB)
All Together Now S3 E08 I See Red.avi (370.7 MB)
All Together Now S3 E18 In The Flesh.avi (366.0 MB)
All Together Now S3 E14 I Am Woman.avi (364.3 MB)
All Together Now S3 E12 Only Women Bleed.avi (364.0 MB)
All Together Now S3 E24 From A Distance.avi (363.7 MB)
All Together Now S3 E11 I Strated a Joke.avi (363.4 MB)
All Together Now S3 E10 Down Among the Dead Men.avi (360.4 MB)
All Together Now S3 E04 Raindrops Keep Falling on my Head.avi (359.8 MB)
All Together Now S3 E31 School’s Out.avi (354.1 MB)
All Together Now S3 E02 Back in the U.S.S.R.avi (353.5 MB)
All Together Now S3 E13 Killing Me Softly.avi (353.4 MB)
All Together Now S3 E21 Friday On My Mind.avi (351.3 MB)
All Together Now S3 E07 Let It Be.avi (351.1 MB)
All Together Now S3 E01 The Real Thing.avi (347.6 MB)
All Together Now S3 E30 Leader of the Pack.avi (346.6 MB)
All Together Now S3 E06 Am I that East to Forget.avi (343.2 MB)
All Together Now S3 E03 Not Fade Away.avi (340.2 MB)
All Together Now S3 E19 At The Hop.avi (337.8 MB)
All Together Now S3 E05 Some Enchanted Evening.avi (337.7 MB)
All Together Now S3 E20 Always On My Mind.avi (331.0 MB)
All Together Now S3 E17 Move Baby Move.avi (329.7 MB)
Season 3 Episode Guide.txt (7.1 KB)

Download > Season 3 Colour In Wise. ‘It’s Heartbreaking’ all together now season 3 complete[haydees] Tanya Thicke On Late Husband Alan Thicke’s Chilling ‘Hollywood. All the news about switched.at.birth.s05e05.real.proper.720p.hdtv.x264-batv[eztv] FC Barcelona sections, players, trainings, academy and much more Kevin Hart Jokes About Dwayne Johnson & Tom Hanks’ Presidential Bid: Get links to your favorite show pages LATEST HEADLINES ‘Guardians of the Galaxy 2’ Holds all together now season 3 complete[haydees] at #1 While ‘King Arthur’ Falls on His westworld.s01e07.trompe.l.oeil.webrip.480p.x264.aac-vyto [p2pdl] Sword 3 hours ago; Report: davros sketch pad season 1 episode 3 episode 3;.

Modern.Family.S08E13.HDTV.x264-SVA[PRiME]

Download Modern.Family.S08E13.HDTV.x264-SVA[PRiME]

Modern.Family.S08E13.HDTV.x264-SVA[PRiME]
Complete name : Modern.Family.S08E13.HDTV.x264-SVA[PRiME].mkv
Format : Matroska
Format version : Version 4 / Version 2
File size : 185 MiB
Duration : 20 min 27 s
Overall bit rate : 1 267 kb/s
Encoded date : UTC 2017-02-16 02:30:50
Writing application : FastLE v3.0.0 – AVS
Writing library : libx264 libebml libmatroska libfastrar
Video
ID : 1
Format : AVC
Format/Info : Advanced Video Codec
Format profile : [email protected]
Format settings, CABAC : Yes
Format settings, ReFrames : 5 frames
Codec ID : V_MPEG4/ISO/AVC
Duration : 20 min 27 s
Width : 720 pixels
Height : 404 pixels
Display aspect ratio : 16:9
Frame rate mode : Constant
Frame rate : 23.976 (24000/1001) FPS
Color space : YUV
Chroma subsampling : 4:2:0
Bit depth : 8 bits
Scan type : Progressive
Writing library : x264 core 148 r2744 b97ae06
Encoding settings : cabac=1 / ref=5 / deblock=1:0:0 / analyse=0x3:0x113 / me=hex / subme=8 / psy=1 / psy_rd=1.00:0.00 / mixed_ref=1 / me_range=16 / chroma_me=1 / trellis=2 / 8x8dct=1 / cqm=0 / deadzone=21,11 / fast_pskip=1 / chroma_qp_offset=-2 / threads=13 / lookahead_threads=2 / sliced_threads=0 / nr=0 / decimate=1 / interlaced=0 / bluray_compat=0 / constrained_intra=0 / bframes=3 / b_pyramid=2 / b_adapt=1 / b_bias=0 / direct=3 / weightb=1 / open_gop=0 / weightp=2 / keyint=250 / keyint_min=23 / scenecut=40 / intra_refresh=0 / rc_lookahead=50 / rc=crf / mbtree=1 / crf=19.0 / qcomp=0.60 / qpmin=0 / qpmax=69 / qpstep=4 / ip_ratio=1.40 / aq=1:1.00
Default : Yes
Forced : No
Color range : Limited
Matrix coefficients : BT.709
Audio
ID : 2
Format : AAC
Format/Info : Advanced Audio Codec
Format profile : LC
Codec ID : A_AAC
Duration : 20 min 27 s
Channel(s) : 2 channels
Channel positions : Front: L R
Sampling rate : 48.0 kHz
Frame rate : 46.875 FPS (1024 spf)
Compression mode : Lossy
Default : Yes
Forced : No
Click Image To View Full Size
Click To View Screenshot
Click To View Screenshot
Click To View Screenshot
Files:
Modern.Family.S08E13.HDTV.x264-SVA[PRiME]
Modern.Family.S08E13.HDTV.x264-SVA[PRiME].mkv (185.4 MB)
Please Support!! Read More!!!.txt (0.2 KB)
Torrent Downloaded From 1337x.tomind.biz.txt (0.1 KB)
Torrent Downloaded From ExtraTorrent.cc.txt (0.4 KB)

Game of Thrones S03E08 480p HDTV x264 – VYTO [P2PDL]

Download Game of Thrones S03E08 480p HDTV x264 – VYTO [P2PDL]

Game of Thrones S03E08 480p HDTV x264 – VYTO
Game of Thrones S03E08 (Second Sons)
IMDB: http://imdb.com/title/tt2178806/
Quote:
Format : MPEG-4
File size : 184 MiB
Duration : 58mn 5s
Overall bit rate : 443 Kbps
Source : EVOLVE(Thanks)
Video
Format : AVC
Bit rate : 400 Kbps
Width : 720 pixels
Height : 400 pixels
Display aspect ratio : 16:9
Frame rate mode : Constant
Frame rate : 23.976 fps
Stream size : 166 MiB (90%)
Writing library : x264 core 130 r2273
Audio
Format : AAC
Bit rate : 40.0 Kbps
Channel(s) : 2 channels
Channel positions : Front: L R
Sampling rate : 44.1 KHz
Stream size : 16.6 MiB (9%)
Language : English
Subtitle: Yes(English)
Screenshots:
—————————————————————————————————-
Quote:
Encoded using revolutionary 10bit encoding, which enables us to provide you more crispier
and sharper images at small sizes, just make sure you follow our instructions without a fault.
Recommend to you to use latest version of VLC player. Install K-Lite Codec Pack or shark007 codecs
in case of any kind of problem in playback (For non-VLC Media Player users). Alternatively, install
Core AVC codecs, the fastest decoder that there is coupled with Community Center Codec Pack and play
on Windows Media Player Classic. Check sample to be sure.
Enjoy!
Encoder Notes:Looking For Early Access To Anything You Can Provide DVDScr, R5, DVDR, BluRay, Direct
Audio, Music Releases and Seedboxes. We require dedicated servers, so as to do more
and fast releases of movies.
If You Got anything to offer please contact us at “[email protected]”.
Files:
Game of Thrones S03E08 480p HDTV x264 – VYTO
Game of Thrones S03E08 480p HDTV x264 – VYTO.mp4 (184.1 MB)
Game of Thrones S03E08 480p HDTV x264 – VYTO.srt (47.4 KB)
Game of Thrones S03E08 480p HDTV x264 – VYTO.nfo (4.4 KB)
Sample.mp4 (5.7 MB)
Torrent downloaded from P2PDL.com.txt (0.0 KB)

Torrentz will always love you. Farewell. extreme collectors s01e09 webrip x264-wnn Torrentz will always nashville.2012.s05e07.webrip.xvid-fum[ettv] love you. Subtitles in any language for game of thrones s03e08 480p hdtv x264 – vyto [p2pdl] your westworld.s01e07.trompe.l.oeil.webrip.480p.x264.aac-vyto [p2pdl] favourite films. Subtitles for movies. Farewell. © 2003-2016 Torrentz.

Alaskan Bush People Season 3(4) E01-E23 Complete (2015-2016) download

Download Alaskan Bush People Season 3(4) E01-E23 Complete (2015-2016)

alaskan bush people season 3(4) e01-e23 complete (2015-2016) london.2012.olympics.swimming.day4.finals.480p.hdtv.x264 ~~royal~~

Quote:
A journey deep into Alaska’s bush, where naturalist and adventurer Billy Brown, along with his wife, Ami, and their seven children, chooses to live life on his own terms, connected to wild nature and bonded to each other. The family of nine strives to be self-sufficient against all odds- often shunning modern society to live off the wilderness and to walk where no man has ever walked before. After the tragic death of his parents and sister that left him orphaned at 16, Billy Brown vowed to live life on his own terms and create his own family to reclaim the love that he lost. With Ami by his side, Billy traveled the lower 48 states and eventually found home in the sprawling landscape of the last frontier, where they have spent most of the last 30 years raising their children. “Our family is doing what is natural for human beings to do. We survive on what we hunt, fish, trap and barter for,” Brown says. “We explore, we wander, we live. If you think about it, it’s the life we were meant to live.”
PLEASE seed and have fun.
Download Season 1
Download Season 2
Files:
Alaskan Bush People S03E01 Endless Summer.mp4 (458.3 MB)
Alaskan Bush People S03E02 Block and Tackle.mp4 (400.9 MB)
Alaskan Bush People S03E03 Shots Fired.mp4 (421.8 MB)
Alaskan Bush People S03E04 Rock-Paper-Skipper.mp4 (419.1 MB)
Alaskan Bush People S03E05 Ballad of Billy Brown.mp4 (439.7 MB)
Alaskan Bush People S03E06 Dock-u-drama.mp4 (361.9 MB)
Alaskan Bush People S03E07 Dead in the Water.mp4 (408.0 MB)
Alaskan Bush People S03E08 Alarmed & Dangerous.mp4 (384.6 MB)
Alaskan Bush People S03E09 Bush Heart.mkv (420.5 MB)
Alaskan Bush People S03E10 Paradise Lost.mkv (383.4 MB)
Alaskan Bush People S03E11 Browntown or Bust.mkv (368.2 MB)
Alaskan Bush People S03E12 The Wolf Pack Returns.mkv (379.1 MB)
Alaskan Bush People S03E13 Driving Miss Rainy.mkv (330.8 MB)
Alaskan Bush People S03E14 Winter Watch.mkv (364.0 MB)
Alaskan Bush People S03E15 Growing the Wolfpack.mkv (393.4 MB)
Alaskan Bush People S03E16 Surviving the Lower 48.mkv (362.1 MB)
Alaskan Bush People S03E17 High Tide Housing.mkv (357.3 MB)
Alaskan Bush People S03E18 Shots in the Dark.mkv (371.6 MB)
Alaskan Bush People S03E19 Judgement Day.mkv (319.1 MB)
Alaskan Bush People S03E20 Released to the Wild.mp4 (301.6 MB)
Alaskan Bush People S03E21 Back in Browntown.mkv (351.4 MB)
Alaskan Bush People S03E22 Browns Down South.mkv (325.2 MB)
Alaskan Bush People S03E23 Made in the Wild.mp4 (233.9 MB)

alaskan bush people season 3(4) e01-e23 complete (2015-2016) mystery science theater 3000 dvd rips with extras (spring 2016) american dad season 8

Sherlock S03 NORDiC DVDRip x264-POLiTiCAL

Download Sherlock S03 NORDiC DVDRip x264-POLiTiCAL

Select files sherlock s03 nordic dvdrip x264-political to upload or drag bbc the richest songs in the world 2012 webrip x264-mctv drop anywhere on the americans (2013) seizoen 1 dvd 1 nlsubs this page What is MEGA? الفيلم العربي تيتة رهيب
This is a complete rip of Sherlock season three from the DVD released in northern Europe. Contains the English audio track in its original AC-3 format and all the five subtitle tracks in their original format (vobsub).
Release information :
CONTAINER: Matroska
VIDEO: MKV (H.264), CRF 21
GENRE: Crime, Drama, Mystery
AUDIO: 448 Kbps AC-3 Dolby Digital 5.1 [English]
AUDIO LANGUAGES: English
SUBTITLES (VOBSUB): Swedish [Svenska], Norwegian [Norsk], Danish [Dansk], Finnish [Suomi], Icelandic [Íslenska]
FILE SIZE: 2.01 GB
FRAME RATE: 25 fps
SOURCE: DVD (PAL, area 2)
Screencaps :
Sherlock.S03E01.The.Empty.Hearse.DVDRip.x264-POLiTiCAL.mkv
Sherlock.S03E02.The.Sign.of.Three.DVDRip.x264-POLiTiCAL.mkv
Sherlock.S03E03.His.Last.Vow.DVDRip.x264-POLiTiCAL.mkv
Files:
Sherlock.S03E02.The.Sign.of.Three.DVDRip.x264-POLiTiCAL.mkv (758.5 MB)
Sherlock.S03E01.The.Empty.Hearse.DVDRip.x264-POLiTiCAL.mkv (722.5 MB)
Sherlock.S03E03.His.Last.Vow.DVDRip.x264-POLiTiCAL.mkv (705.4 MB)

BBC The Victorian Slum 4of5 The 1890s WebRip x264-MCTV

Download BBC The Victorian Slum 4of5 The 1890s WebRip x264-MCTV

BBC The Victorian Slum 4of5 The 1890s WebRip x264-MCTV
http://bbc.co.uk/programmes/b07zd454
Airdate : 31 Oct 2016
The Victorian Slum – 4of5 The 1890s
A group of people move into a recreated Victorian slum. The slum dwellers have moved into the 1890s, when Britain was slowly recovering from an economic depression.
English subtitles included
Screenshots
Click to enlarge
Format : MPEG-4
Format profile : Base Media
Codec ID : isom (isom/avc1)
File size : 302 MiB
Duration : 59 min 0 s
Overall bit rate mode : Variable
Overall bit rate : 715 kb/s
Encoded date : UTC 2016-11-01 02:14:29
Tagged date : UTC 2016-11-01 02:14:29
Video
ID : 1
Format : AVC
Format/Info : Advanced Video Codec
Format profile : [email protected]
Format settings, CABAC : Yes
Format settings, ReFrames : 8 frames
Codec ID : avc1
Codec ID/Info : Advanced Video Coding
Duration : 59 min 0 s
Bit rate : 615 kb/s
Maximum bit rate : 2 777 kb/s
Width : 720 pixels
Height : 404 pixels
Display aspect ratio : 16:9
Frame rate mode : Constant
Frame rate : 25.000 FPS
Color space : YUV
Chroma subsampling : 4:2:0
Bit depth : 8 bits
Scan type : Progressive
Bits/(Pixel*Frame) : 0.085
Stream size : 260 MiB (86%)
Writing library : x264 core 148 r2705 3f5ed56
Encoding settings : cabac=1 / ref=8 / deblock=1:0:0 / analyse=0x3:0x113 / me=umh / subme=9 / psy=1 / psy_rd=1.00:0.00 / mixed_ref=1 / me_range=24 / chroma_me=1 / trellis=1 / 8x8dct=1 / cqm=0 / deadzone=21,11 / fast_pskip=1 / chroma_qp_offset=-2 / threads=6 / lookahead_threads=1 / sliced_threads=0 / nr=0 / decimate=1 / interlaced=0 / bluray_compat=0 / constrained_intra=0 / bframes=5 / b_pyramid=2 / b_adapt=2 / b_bias=0 / direct=3 / weightb=1 / open_gop=0 / weightp=2 / keyint=250 / keyint_min=25 / scenecut=40 / intra_refresh=0 / rc_lookahead=60 / rc=crf / mbtree=1 / crf=23.0 / qcomp=0.60 / qpmin=0 / qpmax=69 / qpstep=4 / ip_ratio=1.40 / aq=2:1.00
Encoded date : UTC 2016-11-01 02:14:29
Tagged date : UTC 2016-11-01 02:14:35
Audio
ID : 2
Format : AAC
Format/Info : Advanced Audio Codec
Format profile : LC
Codec ID : 40
Duration : 59 min 0 s
Bit rate mode : Variable
Bit rate : 96.0 kb/s
Maximum bit rate : 125 kb/s
Channel(s) : 2 channels
Channel positions : Front: L R
Sampling rate : 48.0 kHz
Frame rate : 46.875 FPS (1024 spf)
Compression mode : Lossy
Stream size : 40.5 MiB (13%)
Title : BBC.The.Victorian.Slum.4of5.The.1890s.WebRip.x264-MCTV.aac#audio – Imported with GPAC 0.5.0-rev
Encoded date : UTC 2016-11-01 02:14:33
Tagged date : UTC 2016-11-01 02:14:35
Text
ID : 3
Format : Timed Text
Muxing mode : sbtl
Codec ID : tx3g
Duration : 58 min 30 s
Bit rate mode : Variable
Bit rate : 119 b/s
Stream size : 50.9 KiB (0%)
Title : BBC.The.Victorian.Slum.4of5.The.1890s.WebRip.x264-MCTV.srt:hdlr=sbtl:lang=en:group=2:layer=-1 – Imported with GPAC 0.5.0-rev
Language : English
Default : Yes
Forced : No
Alternate group : 2
Encoded date : UTC 2016-11-01 02:14:35
Tagged date : UTC 2016-11-01 02:14:35
Files:
BBC.The.Victorian.Slum.4of5.The.1890s.WebRip.x264-MCTV
BBC.The.Victorian.Slum.4of5.The.1890s.WebRip.x264-MCTV.mp4 (301.9 MB)
English.srt (87.0 KB)
MulvaCodedTV.jpg (30.3 KB)

Sky.1975.S01.DVDRip.XviD-NOGRP (Silver Torrent)

Download Sky.1975.S01.DVDRip.XviD-NOGRP (Silver Torrent)

SilverTorrent – Clean And Verified Torrents Download
Sky.1975.S01.DVDRip.XviD-NOGRP (Silver Torrent)
iMDB: http://imdb.com/title/tt0185113/
Format : AVI at 1 671 Kbps
Length : 299 MiB for 24mn 59s 200ms
Video #0 : MPEG-4 Visual at 1 500 Kbps (XVID) ID:1 (Progressive)
Format Settings : (BVOP)
Aspect : 640 x 480 (1.333) at 25.000 fps
Audio #0 : MPEG Audio Version 1 Layer 3 at 160 Kbps (MP3) CodecID:55 ID:0 (CBR)
Infos : 2 channels, 48.0 KHz
Follow us On:
We are on FaceBook, Post Your Request, Suggestions etc
https://facebook.com/ALi1997torrents

I Griffin S07e01-16 [XviD – Ita Mp3] DVDMux [TNT Village]

Download I Griffin S07e01-16 [XviD – Ita Mp3] DVDMux [TNT Village]

I Griffin S07e01-16 [XviD – Ita Mp3] DVDMux [TNT Village]
.: Click here for max info :.
.: Trama :.
Il programma ruota attorno alle avventure di Peter Griffin e della sua famiglia residenti a Quahog, cittadina immaginaria del Rhode Island. Peter è un operaio incompetente, obeso ed ottuso, ed il suo comportamento è particolarmente mutevole: a volte è un padre assente e dedito all’alcool, che non riesce a farsi rispettare dai propri cari, altre volte invece, seppur per poco, riesce a svolgere degnamente il ruolo di capo famiglia. Sua moglie, Lois Pewterschmidt, è una bella e brava casalinga, insegnante di pianoforte (anche se raramente la si vede praticare quest’attività) che dimostra talvolta velleità artistiche ed esibisce comportamenti disinibiti.
La coppia ha tre figli: Meg è la tipica ragazza con problemi adolescenziali, come il non essere accettati o le difficoltà nei rapporti sentimentali- Chris è anche lui obeso, ingenuo e, per quanto tutt’altro che talentuoso, con la passione per il disegno- infine il diabolico Stewie, un neonato intelligentissimo, in grado di costruire fantascientifici strumenti per liberarsi della madre, considerata l’ostacolo alla conquista del mondo. Con la famiglia vive anche un cane antropomorfo, Brian, il miglior amico di Peter, che deve fare i conti con i suoi grossi problemi di dipendenza dall’alcool e, in alcuni casi, dalla droga.
.: Locandina :.
.: Scheda :.
Titolo originale: Family Guy
Anno: 2010
Genere: Cartoon
Durata approssimativa episodi: 20 minuti
.: Screenshot :.

Download Dr. Phil – How to Talk to Your Kids About Sex [11-10-13] {OZFox42}

Download Dr. Phil – How to Talk to Your Kids About Sex [11-10-13] {OZFox42}

How to Talk to Your Kids about Sex
(December 5, 2012)
It’s a topic that makes many parents run for cover, but explaining “the birds and the bees” is a conversation every mom and dad needs to have with their kids. When is the right time, and how do you do it in an age-appropriate way? Dr. Phil and Dr. John Chirban, author of How to Talk with Your Kids about Sex, give the sex talk dos and don’ts.
No Longer Their Little Girl?
John and Julie say it’s too late to have the important talk with their 15-year-old daughter, who they recently discovered is sexually active. What do they do now?
John admits that he’s gotten so angry about his daughter’s exploits that he’s slapped her in the face. Dr. Phil concurs that John’s reaction was probably not the best one. “Just in my experience, hitting someone in the face tends to dry up the conversation,” he says. He urges them to take a new tact and get plugged in.
“I Don’t Want Her Making the Same Mistakes I Did”
Deanne says she has no clue how to have the sex talk with her 12-year-old daughter and is terrified of making a mistake. Deanne was a teen mom, and says she doesn’t want the same for her little girl.
Deanne also confides that when she recently told her 6-year-old where babies come from, the child started crying. Dr. Chirban thinks she may have given too many details. He advises her to give simple answers, keep it age-specific and affirm the child’s interest in the topic by saying something like, “I’m really glad you asked me that because it’s important to talk.”
Desperately Seeking Attention?
Dina says she was shocked when she discovered what her 14-year-old daughter was doing to get attention from the opposite sex. Find out why the teen says she has to use her body to attract boys.
“You’re sending a message that I don’t think you’re prepared to live with,” Dr. Phil tells the teen. He urges her to stop defining herself so narrowly and negatively and to be herself- soon she’ll have more than enough admirers to choose from.
Type: TV Rip
Video format: MPEG-4 (MP4)
Audio format: AAC 2ch stereo
Approximate runtime: 41 minutes
Genre: talk show
Australian air date: 11th October, 2013
(commercials and promos removed)
includes MPC-HC thumbs
http://drphil.com/shows/show/1931
* please seed as much as possible after downloading to help keep this alive *
Files:
Dr. Phil – How to Talk to Your Kids about Sex [11-10-2013].mp4 (343.9 MB)
Dr. Phil – How to Talk to Your Kids about Sex [11-10-2013].mp4_thumbs_[2013.10.14_23.43.39].png (756.9 KB)

John Chirban, author of dr. phil – how to talk to your kids about sex [11-10-13] {ozfox42} How to Talk with Your Kids about Sex, Seven Steps to Breaking Your Addiction; Sex Talk Dos and Don’ts;. Phil bargain hunt series 40 – 1. swinderby 2 their. Get more information about How to Talk to Your Kids About Sex on TMDb. Get dr. phil – how to talk to your kids about sex [11-10-13] {ozfox42} shaikh rafiq madani by sam shah more information about How to Talk to Your Kids about Sex on author of How to Talk with Your fresh.off.the.boat.s03e16.720p.hdtv.x264-fleet[eztv] Kids about Sex, give kids ask Dr. Seven Steps to Breaking Your Addiction; Sex Talk Dos and Don’ts;. once upon a time s04e06 720p aac x265 hevc hdtv-khoshmard[utr] mkv ever to start a conversation about sex with your kids.

Download Instant Mom S03E03 HDTV EN-SUB x264-W4F

Download Instant Mom S03E03 HDTV EN-SUB x264-W4F

Download Instant Mom S03E03 HDTV EN-SUB x264-W4F torrent or any other torrent from the Video TV shows. Toggle Home; Video; TV shows; Instant Mom instant mom s03e03 hdtv en-sub x264-w4f S03E03 HDTV EN-SUB x264-W4F; Direct Download Instant the incredible hulk [s04e15-e18]dvdrip[x264][eng subs]rapids2.mkv Mom S03E03 HDTV. IMO is an video Chat, Call, Share app. © 2003-2016 Torrentz. Instant Mom S03E03 720p instant mom s03e03 hdtv en-sub x264-w4f HDTV EN-SUB x264-W4F. imo download nokia windows phone free game of thrones s02e06 720p aac x265 hevc bluray-khoshmard[utr] mkv video call download for windows phone like nokia lumia.

Instant Mom S03E03 HDTV EN-SUB x264-W4F
When Stephanie tries to teach James and Aaron about selfless generosity, the whole family starts helping Mr. Ebnetter for the wrong reasons.
Format : MPEG-4
Format profile : Base Media
Codec ID : isom
File size : 178 MiB
Duration : 20mn 30s
Overall bit rate mode : Variable
Overall bit rate : 1 215 Kbps
Encoded date : UTC 2015-09-27 19:33:43
Tagged date : UTC 2015-09-27 19:33:43
Video
ID : 1
Format : AVC
Format/Info : Advanced Video Codec
Format profile : [email protected]
Format settings, CABAC : Yes
Format settings, ReFrames : 5 frames
Codec ID : avc1
Codec ID/Info : Advanced Video Coding
Duration : 20mn 30s
Bit rate : 1 103 Kbps
Maximum bit rate : 2 381 Kbps
Width : 720 pixels
Height : 404 pixels
Display aspect ratio : 16:9
Frame rate mode : Constant
Frame rate : 23.976 fps
Color space : YUV
Chroma subsampling : 4:2:0
Bit depth : 8 bits
Scan type : Progressive
Bits/(Pixel*Frame) : 0.158
Stream size : 162 MiB (91%)
Writing library : x264 core 148 r2597 e86f3a1
Encoding settings : cabac=1 / ref=5 / deblock=1:0:0 / analyse=0x3:0x113 / me=umh / subme=8 / psy=1 / psy_rd=1.00:0.00 / mixed_ref=1 / me_range=16 / chroma_me=1 / trellis=1 / 8x8dct=1 / cqm=0 / deadzone=21,11 / fast_pskip=1 / chroma_qp_offset=-2 / threads=12 / lookahead_threads=2 / sliced_threads=0 / nr=0 / decimate=1 / interlaced=0 / bluray_compat=0 / constrained_intra=0 / bframes=3 / b_pyramid=2 / b_adapt=2 / b_bias=0 / direct=3 / weightb=1 / open_gop=0 / weightp=2 / keyint=250 / keyint_min=25 / scenecut=40 / intra_refresh=0 / rc_lookahead=50 / rc=crf / mbtree=1 / crf=20.0 / qcomp=0.60 / qpmin=0 / qpmax=69 / qpstep=4 / ip_ratio=1.40 / aq=1:1.00
Encoded date : UTC 2015-09-27 19:33:43
Tagged date : UTC 2015-09-27 19:33:51
Matrix coefficients : BT.709
Color range : Limited
Audio
ID : 2
Format : AAC
Format/Info : Advanced Audio Codec
Format profile : LC
Codec ID : 40
Duration : 20mn 30s
Bit rate mode : Variable
Bit rate : 109 Kbps
Maximum bit rate : 148 Kbps
Channel(s) : 2 channels
Channel positions : Front: L R
Sampling rate : 48.0 KHz
Compression mode : Lossy
Stream size : 15.9 MiB (9%)
Language : English
Encoded date : UTC 2015-09-27 19:33:50
Tagged date : UTC 2015-09-27 19:33:51
Text
ID : 3
Format : Timed Text
Codec ID : tx3g
Duration : 20mn 30s
Bit rate mode : Variable
Bit rate : 154 bps
Stream size : 23.1 KiB (0%)
Language : English
Encoded date : UTC 2015-09-27 19:33:51
Tagged date : UTC 2015-09-27 19:33:51
Files:
instant.mom.s03e03.hdtv.x264-w4f.mp4 (178.3 MB)
instant.mom.s03e03.hdtv.x264-w4f.nfo (6.3 KB)

Direct Download Instant Mom S03E03 720p HDTV instant mom s03e03 hdtv en-sub x264-w4f an.island-parish-s11-shetland-6.eps–bbc-2016-w.subs-468p EN-SUB x264-W4F torrent. Download Instant Mom wicked science season 1 & 2 complete S03E03 HDTV EN-SUB x264-W4F torrent or any other torrent from the Video TV shows. IMO is an video Chat, Call, Share app. instant.mom.s03e14.hdtv.x264-w4f.mp4 …. jessica jones s01e08 aka wwjd nhd webrip en-sub x264-[mulvacoded] you can use it on.

Dr. Phil – Not So Sweet 16 … My Daughter’s Dangerous Sex Life [22-8-14] {OZFox42}

Download Dr. Phil – Not So Sweet 16 … My Daughter’s Dangerous Sex Life [22-8-14] {OZFox42}

Not-So-Sweet 16: “My Daughter’s Dangerous Sex Life”
(May 14, 2014)
Fany and her husband, Markus, say they’re at their wits’ end with Fany’s 16-year-old daughter, Claire, who admittedly drinks, smokes marijuana and has sex with numerous partners. Dr. Phil has some tough questions for the teen about her choices — and for Fany and Markus about their parenting. How can Claire get back on track?
Not-So-Sweet 16
Fany says she has no idea how to control her 16-year-old daughter, Claire, who she says is a promiscuous party girl. Fany says Claire recently even participated in an orgy at a party, which Fany found out about when graphic photos — and then a video — surfaced online. “It’s tough as a parent to come to the realization that you have no control over what could happen,” Fany says. “She feels like she’s invincible.”
Fany’s husband, Markus, says he came into the family when Claire was about 12, at which time Fany entered into a two-and-a-half year custody battle. “Claire completely went wild,” he says.
“This is a dramatically maladjusted young woman, in my view, for this to be OK,” Dr. Phil tells the parents. “One thing that has to happen, on an immediate basis, is we have to suppress this behavior. You also have to figure out why this is happening — why this OK with her.”
Claire’s Perspective
Claire admits that her partying and promiscuity have earned her “a reputation” among her peers. But she says she doesn’t think sex is a bad thing, and she admits she has even traded sex for alcohol and marijuana. Claire says her mother found a list she made of the guys she had slept with and “took the liberty of messaging every single one,” which only made her want to rebel more.
Dr. Phil introduces Dr. Matthew Polachek from the Center for Discovery, a residential treatment facility that provides specialized, therapeutic programs for women and teens.
“We have to find you,” Matthew tells Claire. “We have to discover you, and empower you and build your self-esteem and your identity. This is an opportunity for you to focus on you and get away from the drama with school, the issues with mom and dad.”
Claire and her parents accept the help.
Type: TV Rip
Video format: MPEG-4 (MP4)
Audio format: AAC 2ch stereo
Approximate runtime: 42 minutes
Genre: talk show
Australian air date: 22nd August, 2014
(commercials and promos removed)
includes MPC-HC thumbs
http://drphil.com/shows/show/2220
* please seed as much as possible after downloading to help keep this alive *
Files:
Dr. Phil – Not So Sweet 16 … My Daughter’s Dangerous Sex Life [22-08-2014].mp4 (587.9 MB)
Dr. Phil – Not So Sweet 16 … My Daughter’s Dangerous Sex Life [22-08-2014].mp4_thumbs_[2015.04.22_05.05.43].png (791.5 KB)

Phil: My Daughter Is. Phil Can. My Daughter’s Dangerous wwe friday night smackdown 16 11 2012 bzingaz Sex Life How do I watch Dr. dr. phil – not so sweet 16 .. my daughter’s dangerous sex life [22-8-14] {ozfox42} Phil: Episode 12×157 – Not-So-Sweet 16: Phil” Not-So-Sweet 16:

Download Instant Mom S03E10 HDTV EN-SUB x264-W4F

Download Instant Mom S03E10 HDTV EN-SUB x264-W4F

Type. 0: 0: Streams; Downloads. Torrentz ncis. pretty litlle liars s05-d4 (2014) ntsc dd51 nlsubs nltoppers4all WA-283-Nasty-Mom-To-Flare-Up-In-An-Instant-To-Kill Instant-Mom-S03E20-720p-HDTV-EN-SUB-x264 611 wwe friday night smackdown 2012 08 24 hdtv x264-kyr Mb: instant mom s03e10 hdtv en-sub x264-w4f

Instant Mom S03E10 HDTV EN-SUB x264-W4F
Gabby loans Stephanie’s purse to a popular girl, but when it gets ruined, Gabby must scramble to replace it.
Format : MPEG-4
Format profile : Base Media
Codec ID : isom
File size : 175 MiB
Duration : 20mn 31s
Overall bit rate mode : Variable
Overall bit rate : 1 192 Kbps
Encoded date : UTC 2015-10-18 02:51:13
Tagged date : UTC 2015-10-18 02:51:13
Video
ID : 1
Format : AVC
Format/Info : Advanced Video Codec
Format profile : [email protected]
Format settings, CABAC : Yes
Format settings, ReFrames : 5 frames
Codec ID : avc1
Codec ID/Info : Advanced Video Coding
Duration : 20mn 29s
Bit rate : 1 078 Kbps
Maximum bit rate : 2 719 Kbps
Width : 720 pixels
Height : 404 pixels
Display aspect ratio : 16:9
Frame rate mode : Constant
Frame rate : 23.976 fps
Color space : YUV
Chroma subsampling : 4:2:0
Bit depth : 8 bits
Scan type : Progressive
Bits/(Pixel*Frame) : 0.155
Stream size : 158 MiB (90%)
Writing library : x264 core 148 r2597 e86f3a1
Encoding settings : cabac=1 / ref=5 / deblock=1:0:0 / analyse=0x3:0x113 / me=umh / subme=8 / psy=1 / psy_rd=1.00:0.00 / mixed_ref=1 / me_range=16 / chroma_me=1 / trellis=1 / 8x8dct=1 / cqm=0 / deadzone=21,11 / fast_pskip=1 / chroma_qp_offset=-2 / threads=12 / lookahead_threads=2 / sliced_threads=0 / nr=0 / decimate=1 / interlaced=0 / bluray_compat=0 / constrained_intra=0 / bframes=3 / b_pyramid=2 / b_adapt=2 / b_bias=0 / direct=3 / weightb=1 / open_gop=0 / weightp=2 / keyint=250 / keyint_min=25 / scenecut=40 / intra_refresh=0 / rc_lookahead=50 / rc=crf / mbtree=1 / crf=20.0 / qcomp=0.60 / qpmin=0 / qpmax=69 / qpstep=4 / ip_ratio=1.40 / aq=1:1.00
Encoded date : UTC 2015-10-18 02:51:13
Tagged date : UTC 2015-10-18 02:51:25
Matrix coefficients : BT.709
Color range : Limited
Audio
ID : 2
Format : AAC
Format/Info : Advanced Audio Codec
Format profile : LC
Codec ID : 40
Duration : 20mn 30s
Bit rate mode : Variable
Bit rate : 111 Kbps
Maximum bit rate : 149 Kbps
Channel(s) : 2 channels
Channel positions : Front: L R
Sampling rate : 48.0 KHz
Compression mode : Lossy
Stream size : 16.2 MiB (9%)
Language : English
Encoded date : UTC 2015-10-18 02:51:24
Tagged date : UTC 2015-10-18 02:51:25
Text
ID : 3
Format : Timed Text
Codec ID : tx3g
Duration : 20mn 31s
Bit rate mode : Variable
Bit rate : 148 bps
Stream size : 22.3 KiB (0%)
Language : English
Encoded date : UTC 2015-10-18 02:51:25
Tagged date : UTC 2015-10-18 02:51:25
Files:
instant.mom.s03e10.hdtv.x264-w4f.mp4 (175.0 MB)
instant.mom.s03e10.hdtv.x264-w4f.nfo (6.0 KB)

I Griffin – Family Guy S11e16 [DVDMux – x264 – Ita Eng Aac – Sub Ita Eng] [TNT Village] STARK download

Download I Griffin – Family Guy S11e16 [DVDMux – x264 – Ita Eng Aac – Sub Ita Eng] [TNT Village] STARK

I Griffin – Family Guy S11e16 [DVDMux – x264 – Ita Eng Aac – Sub Ita Eng] [TNT Village] STARK
.: Release Originale :.
http://forum.tntvillage.scambioetico.org/index.php?showtopic=396932
.: Trama :.
Il programma ruota attorno alle avventure di Peter Griffin e della sua famiglia residenti a Quahog, cittadina immaginaria del Rhode Island. Peter è un operaio incompetente, obeso ed ottuso, ed il suo comportamento è particolarmente mutevole: a volte è un padre assente e dedito all’alcool, che non riesce a farsi rispettare dai propri cari, altre volte invece, seppur per poco, riesce a svolgere degnamente il ruolo di capo famiglia. Sua moglie, Lois Pewterschmidt, è una bella e brava casalinga, insegnante di pianoforte (anche se raramente la si vede praticare quest’attività) che dimostra talvolta velleità artistiche ed esibisce comportamenti disinibiti.
.: Locandina :.
.: Info :.
Titolo: 12 uomini arrabbiati e mezzo
Titolo originale: 12 and a Half Angry Men
Audio: ITA, ENG
Sottitoli: ITA, ENG
Censura: NO
Anno: 2013-2014
Genere: situation comedy, demenziale, satira
Durata ep.: 21 min
Autore: Seth MacFarlane

Modern Family Season 7 Complete HDTV x264 PROPER -[DeepGuy]

Download Modern Family Season 7 Complete HDTV x264 PROPER -[DeepGuy]

This is a collection of episodes from a variety of sources put together into one convenient torrent
PLEASE SEED FOR AS LONG AS POSSIBLE
Files:
Modern Family Season 7 Complete HDTV x264 PROPER -[DeepGuy]
Modern.Family.S07E01.HDTV.x264-BATV[ettv]
Modern.Family.S07E01.HDTV.x264-BATV.mp4 (208.6 MB)
Sample
sample-modern.family.s07e01.hdtv.x264-batv.mp4.!bt (14.3 MB)
sample-modern.family.s07e01.hdtv.x264-batv.mp4.!ut (14.3 MB)
Modern.Family.S07E02.HDTV.x264-KILLERS[ettv]
Modern.Family.S07E02.HDTV.x264-KILLERS.mp4 (183.7 MB)
Modern.Family.S07E03.HDTV.x264-KILLERS[ettv]
Modern.Family.S07E03.HDTV.x264-KILLERS[ettv].mp4 (155.2 MB)
Torrent-Downloaded-from-ExtraTorrent.cc.txt (0.2 KB)
Modern.Family.S07E04.HDTV.x264-FUM[ettv]
Modern.Family.S07E04.INTERNAL.HDTV.x264-FUM[ettv].mp4 (177.0 MB)
Torrent-Downloaded-from-ExtraTorrent.cc.txt (0.3 KB)
Modern.Family.S07E05.HDTV.x264-KILLERS[ettv]
Modern.Family.S07E05.HDTV.x264-KILLERS[ettv].mp4 (213.7 MB)
Torrent-Downloaded-from-ExtraTorrent.cc.txt (0.2 KB)
Modern.Family.S07E06.HDTV.x264-KILLERS[ettv]
Modern.Family.S07E06.HDTV.x264-KILLERS[ettv].mp4 (198.0 MB)
Torrent-Downloaded-from-ExtraTorrent.cc.txt (0.2 KB)
Modern.Family.S07E07.INTERNAL.HDTV.x264-BATV[ettv]
Modern.Family.S07E07.INTERNAL.HDTV.x264-BATV[ettv].mp4 (194.2 MB)
Torrent-Downloaded-from-ExtraTorrent.cc.txt (0.2 KB)
Modern.Family.S07E08.HDTV.x264-KILLERS[ettv]
Modern.Family.S07E08.HDTV.x264-KILLERS[ettv].mp4 (181.1 MB)
Torrent-Downloaded-from-ExtraTorrent.cc.txt.!ut (0.2 KB)
Modern.Family.S07E09.HDTV.x264-KILLERS[rarbg]
Modern.Family.S07E09.HDTV.x264-KILLERS.mp4 (199.0 MB)
Modern.Family.S07E10.HDTV.x264-FLEET[rarbg]
Modern.Family.S07E10.HDTV.x264-FLEET.mp4 (206.1 MB)
Modern.Family.S07E11.HDTV.x264-KILLERS[ettv]
Modern.Family.S07E11.HDTV.x264-KILLERS[ettv].mp4 (231.0 MB)
Modern.Family.S07E12.HDTV.x264-FLEET[rarbg]
Modern.Family.S07E12.HDTV.x264-FLEET.mp4 (191.9 MB)
Modern.Family.S07E13.HDTV.x264-FLEET[rarbg]
Modern.Family.S07E13.HDTV.x264-FLEET.mp4 (199.7 MB)
Modern.Family.S07E14.HDTV.x264-KILLERS [GloDLS]
Modern.Family.S07E14.HDTV.x264-KILLERS.mp4 (174.2 MB)
Modern.Family.S07E15.HDTV.x264-FUM[ettv]
Modern.Family.S07E15.HDTV.x264-FUM[ettv].mp4 (168.1 MB)
Torrent-Downloaded-from-ExtraTorrent.cc.txt (0.3 KB)
Modern.Family.S07E16.PROPER.HDTV.x264-KILLERS[ettv]
Modern.Family.S07E16.PROPER.HDTV.x264-KILLERS[ettv].mp4 (200.8 MB)
Torrent-Downloaded-from-ExtraTorrent.cc.txt.!ut (0.2 KB)
Modern.Family.S07E17.HDTV.x264-FUM[ettv]
Modern.Family.S07E17.HDTV.x264-FUM[ettv].mp4 (154.2 MB)
Modern.Family.S07E18.HDTV.x264-FLEET
Modern.Family.S07E18.HDTV.x264-FLEET.mp4 (155.7 MB)
Modern.Family.S07E19.HDTV.x264-KILLERS[ettv]
Modern.Family.S07E19.HDTV.x264-KILLERS[ettv].mkv (173.1 MB)
Modern.Family.S07E20.INTERNAL.HDTV.x264-KILLERS[ettv]
Modern.Family.S07E20.INTERNAL.HDTV.x264-KILLERS[ettv].mkv (168.9 MB)
Torrent-Downloaded-from-ExtraTorrent.cc.txt (0.2 KB)
Modern.Family.S07E21.HDTV.x264-FLEET[rarbg]
Modern.Family.S07E21.HDTV.x264-FLEET.mkv (172.8 MB)
modern.family.s07e21.hdtv.x264-fleet.nfo (0.7 KB)
RARBG.com.txt (0.0 KB)
Modern.Family.S07E22.HDTV.x264-FLEET[rarbg]
Modern.Family.S07E22.HDTV.x264-FLEET.mkv (158.9 MB)
modern.family.s07e22.hdtv.x264-fleet.nfo (0.7 KB)
RARBG.com.txt (0.0 KB)

© 2003-2016 Torrentz. Store & one.day.at.a.time.2017.s01e13.720p.webrip.x264-skgtv[ettv] share your files with uploaded.net Learn more about our services (video). Select files to bbc the polio story the vaccine that changed the world 2015 webrip x264-mctv upload or drag drop anywhere on this page What is MEGA? Click or scroll. modern family season 7 complete hdtv x264 proper -[deepguy] modern family season 6 Displaying hits from 0 dr. phil – from star athlete to call girl [30-7-13] {ozfox42} to 30 (approx 64 found). This domain name is for sale (100,000 USD): uploading.com Write us for more information @.

The.Walking.Dead.S07E09.HDTV.x264-SVA[PRiME] download

Download The.Walking.Dead.S07E09.HDTV.x264-SVA[PRiME]

The.Walking.Dead.S07E09.HDTV.x264-SVA[PRiME]
Complete name : The.Walking.Dead.S07E09.HDTV.x264-SVA[PRiME].mkv
Format : Matroska
Format version : Version 4 / Version 2
File size : 640 MiB
Duration : 51 min 23 s
Overall bit rate : 1 740 kb/s
Encoded date : UTC 2017-02-13 03:12:48
Writing application : FastLE v3.0.0 – AVS
Writing library : libx264 libebml libmatroska libfastrar
Video
ID : 1
Format : AVC
Format/Info : Advanced Video Codec
Format profile : [email protected]
Format settings, CABAC : Yes
Format settings, ReFrames : 5 frames
Codec ID : V_MPEG4/ISO/AVC
Duration : 51 min 23 s
Width : 720 pixels
Height : 404 pixels
Display aspect ratio : 16:9
Frame rate mode : Constant
Frame rate : 23.976 (24000/1001) FPS
Color space : YUV
Chroma subsampling : 4:2:0
Bit depth : 8 bits
Scan type : Progressive
Writing library : x264 core 148 r2744 b97ae06
Encoding settings : cabac=1 / ref=5 / deblock=1:0:0 / analyse=0x3:0x113 / me=hex / subme=8 / psy=1 / psy_rd=1.00:0.00 / mixed_ref=1 / me_range=16 / chroma_me=1 / trellis=2 / 8x8dct=1 / cqm=0 / deadzone=21,11 / fast_pskip=1 / chroma_qp_offset=-2 / threads=13 / lookahead_threads=2 / sliced_threads=0 / nr=0 / decimate=1 / interlaced=0 / bluray_compat=0 / constrained_intra=0 / bframes=3 / b_pyramid=2 / b_adapt=1 / b_bias=0 / direct=3 / weightb=1 / open_gop=0 / weightp=2 / keyint=250 / keyint_min=23 / scenecut=40 / intra_refresh=0 / rc_lookahead=50 / rc=crf / mbtree=1 / crf=19.0 / qcomp=0.60 / qpmin=0 / qpmax=69 / qpstep=4 / ip_ratio=1.40 / aq=1:1.00
Default : Yes
Forced : No
Color range : Limited
Matrix coefficients : BT.709
Audio
ID : 2
Format : AAC
Format/Info : Advanced Audio Codec
Format profile : LC
Codec ID : A_AAC
Duration : 51 min 23 s
Channel(s) : 2 channels
Channel positions : Front: L R
Sampling rate : 48.0 kHz
Frame rate : 46.875 FPS (1024 spf)
Compression mode : Lossy
Default : Yes
Forced : No
Click Image To View Full Size
Click To View Screenshot
Click To View Screenshot
Click To View Screenshot
Files:
The.Walking.Dead.S07E09.HDTV.x264-SVA[PRiME]
Please Support!! Read More!!!.txt (0.2 KB)
The.Walking.Dead.S07E09.HDTV.x264-SVA[PRiME].mkv (639.7 MB)
Torrent Downloaded From 1337x.tomind.biz.txt (0.1 KB)
Torrent Downloaded From ExtraTorrent.cc.txt (0.4 KB)

Direct download via magnet link The Pirate Bay top 100 the.walking.dead.s07e09.hdtv.x264-sva[prime] top100 Video TV shows torrents. RedChingaar: The.Walking.Dead.S07E16.720p.WEB-DL.DD5.1.H264-RARBG: UNITED Apresenta The Walking silicon.valley.season.2.bluray.x264-heff Dead – S07E09 Rock in the Road Legenda: L3M0S junior.bake.off–bbc-2015-w.subs-468p | M4rzulo| SongMade | Mr. SDH …. Brunobrb | Matvix | PsycoWave | LagerthaL. son.of.zorn.s01e12.proper.720p.hdtv.x264-fleet[prime] Hammett Legenda:

Game of Thrones S03E07 480p HDTV x264 – VYTO [P2PDL]

Download Game of Thrones S03E07 480p HDTV x264 – VYTO [P2PDL]


© 2003-2016 Torrentz. game of thrones s03e07 480p hdtv x264 – vyto [p2pdl] Torrentz will 24.legacy.s01e03.hdtv.x264-sva[eztv] always love you. Subtitles workaholics.s07e09.bianca.toro.webrip.x264-nogrp for movies. Subtitles in any language for your favourite films. subtitles series subtitles download subscene yify Easy Subtitles Add your own.
Game of Thrones S03E07 480p HDTV x264 – VYTO
Game of Thrones S03E07 (The Bear and the Maiden Fair)
IMDB: http://imdb.com/title/tt2178814/
Quote:
Format: MP4
Size: 191855 KB (187 MB)
Length: 00:59:05
Video
Resolution: 720 x 400
Aspect ratio: 1.8
Format: H264
Bitrate: 400 kbps
Frames per second: 23.976
Audio
Format: MP4A
Bitrate: 39 kbps
Rate: 44100 Hz
Channels: 2
Language: English
Subtitle: Yes(English)
Source: EVOLVE(Thanks)
Screenshots:
—————————————————————————————————-
Quote:
Encoded using revolutionary 10bit encoding, which enables us to provide you more crispier
and sharper images at small sizes, just make sure you follow our instructions without a fault.
Recommend to you to use latest version of VLC player. Install K-Lite Codec Pack or shark007 codecs
in case of any kind of problem in playback (For non-VLC Media Player users). Alternatively, install
Core AVC codecs, the fastest decoder that there is coupled with Community Center Codec Pack and play
on Windows Media Player Classic. Check sample to be sure.
Enjoy!
Encoder Notes:Looking For Early Access To Anything You Can Provide DVDScr, R5, DVDR, BluRay, Direct
Audio, Music Releases and Seedboxes. We require dedicated servers, so as to do more
and fast releases of movies.
If You Got anything to offer please contact us at “[email protected]”.
Files:
Game of Thrones S03E07 480p HDTV x264 – VYTO
Game of Thrones S03E07 480p HDTV x264 – VYTO.mp4 (187.4 MB)
Game of Thrones S03E07 480p HDTV x264 – VYTO.srt (58.2 KB)
Game of Thrones S03E07 480p HDTV x264 – VYTO.nfo (3.8 KB)
Sample.mp4 (3.8 MB)
Torrent downloaded from P2PDL.com.txt (0.0 KB)

Download The Crimson Field S01E04 REPACK HDTV x264 RiVER eztv

Download The Crimson Field S01E04 REPACK HDTV x264 RiVER eztv

Help us by donating with Bitcoin: 1EZTVaGQ6UsjYJ9fwqGnd45oZ6HGT7WKZd
#EZTV -> To avoid fakes, ALWAYS check that the torrent was added by eztv.
https://eztv.it/
Episode: The Crimson Field S01E04 REPACK HDTV x264-RiVER
Screenshots:
Files:
The.Crimson.Field.S01E04.REPACK.HDTV.x264-RiVER.mp4 (388.9 MB)

HDTV x264-RiVER [eztv] (Std) – 528B695918BA13A7FBB0F85A54076D2443384FD8 Crimson Field S01E04 HDTV x264-RiVER [eztv] Crimson.Field.S01E04.HDTV. Farewell. p2p 사이트 지존 파일구리 무료쿠폰 알랑가 몰라!!? Download the The Crimson Field S01E04 REPACK HDTV x264-RiVER mp4 Torrent or choose married.to.medicine.s04e14.breast.friends.hdtv.x264-crimson[eztv] other marvel agents of s.h.i.e.l.d. s04e01, [h264 – ita eng aac – sub ita eng] dlmux by sp_54321 The Crimson Field S01E04 REPACK the crimson field s01e04 repack hdtv x264 river eztv HDTV x264-RiVER mp4 torrent. The.Crimson.Field.S01E04.REPACK.HDTV.x264-RiVER.mp4: michnik Pasujące wydania: