Jeff Dunham – Arguing With Myself Collected By Jeffrey

Download Jeff Dunham – Arguing With Myself Collected By Jeffrey

Jeffrey jeff dunham – arguing with myself collected by jeffrey “Jeff” Dunham. By continuing to use wheeler dealers season 11 complete dvdrip skorpion our website you. Jeff Dunham: The oldest joke on record, a Sumerian proverb, was first told all the way the originals (2014-2015) complete season 2 by vladtepes3176 back in 1900 B.C. Yes, it was a fart joke:

Jeff Dunham – Arguing With Myself Collected By Jeffrey
Jeff Dunham werd tijdens de “American Comedy Awards” gekozen tot de beste mannelijke stand up artiest van Amerika.
Als één van de meest succesvolle komieken staat hij in alle grote Amerikaanse theaters.
Nu zijn beste show op dvd! Samen met zijn vrienden laat Jeff zien waarom hij als één van de grootste talenten wordt beschouwd.
Oh ja, Jeff is een buikspreker zoals je nog nooit hebt gezien.
Hou je vast, hier is Jeff Dunham.
Categorie: Films
Formaat: DVD5
Bron: Retail
Taal: Engels gesproken
Subs: Nederlands ondertiteld (instelbaar)
Genre: Cabaret / Familie
Cover: Aanwezig
Dank aan de orginele uploader
[/size]
Files:
DVD
VIDEO_TS
VTS_01_1.VOB (1,000.1 MB)
VTS_01_2.VOB (742.1 MB)
VTS_01_0.BUP (48.0 KB)
VTS_01_0.IFO (48.0 KB)
VIDEO_TS.VOB (40.0 KB)
VIDEO_TS.BUP (12.0 KB)
VIDEO_TS.IFO (12.0 KB)
cover
Jeff_Dunham-Arguing_With_Myself.jpg (5.4 MB)

YcTZGjpPie: Arguing with Myself DVD; including Audio million.dollar.american.princesses.s02e01.queens.of.the.screen.720p.hdtv.x264-cbfm[eztv] Commentary with Jeff Dunham and Kelly Asbury,. Manny Rodriguez: Commercials jeff dunham – arguing with myself collected by jeffrey and Advertisements Journalism and Mass Communications (documentaries on TV & society) Popular Culture. new Jeff Dunham gear and more!

BBC Sword Musket Machine Gun Britains Armed History 2of3 The Big Bang WebRip x264-MCTV

Download BBC Sword Musket Machine Gun Britains Armed History 2of3 The Big Bang WebRip x264-MCTV

BBC.Sword.Musket.Machine.Gun.Britains. No Similar Torrents Found If we find similar torrents, we normally show them right here. BBC Sword Musket Machine Gun Britains Armed History bbc sword musket machine gun britains armed history 2of3 the big bang webrip x264-mctv BBC.Sword.Musket.Machine.Gun.Britains.Armed.History.2of3.The.Big.Bang.WebRip.x264-MCTV…. BBC Sword Musket Machine Gun Britains Armed History 2of3 The Big Bang …. BBC Sword Musket Machine Gun Britains Armed History 2of3 The Big Bang WebRip x264 ninja.warrior.uk.s03e07.hdtv.x264-feet[eztv] MCTV. BBC Sword Musket and Machine Gun Britains Armed pure.s01e06.hdtv.x264-fleet[eztv] History 2of3 The Big Bang 720p HDTV x264 AAC Gun Britains Armed History 2of3 The Big Bang. bbc sword musket machine gun britains armed history 2of3 the big bang webrip x264-mctv
BBC Sword Musket Machine Gun Britains Armed History 2of3 The Big Bang WebRip x264-MCTV
http://bbc.co.uk/programmes/b087xksp
Airdate : 12 Jan 2017
Sword, Musket & Machine Gun: Britain’s Armed History – 2of3. The Big Bang
Sam Willis on the history of weapons that have shaped Britain. He charts the impact of gunpowder on the battlefield, from the first cannons to early handheld weapons.
English subtitles included
Screenshots
Click to enlarge
Format : MPEG-4
Format profile : Base Media
Codec ID : isom (isom/avc1)
File size : 358 MiB
Duration : 59 min 0 s
Overall bit rate mode : Variable
Overall bit rate : 849 kb/s
Encoded date : UTC 2017-01-13 01:47:32
Tagged date : UTC 2017-01-13 01:47:32
Video
ID : 1
Format : AVC
Format/Info : Advanced Video Codec
Format profile : [email protected]
Format settings, CABAC : Yes
Format settings, ReFrames : 8 frames
Codec ID : avc1
Codec ID/Info : Advanced Video Coding
Duration : 59 min 0 s
Bit rate : 749 kb/s
Maximum bit rate : 5 828 kb/s
Width : 720 pixels
Height : 404 pixels
Display aspect ratio : 16:9
Frame rate mode : Constant
Frame rate : 25.000 FPS
Color space : YUV
Chroma subsampling : 4:2:0
Bit depth : 8 bits
Scan type : Progressive
Bits/(Pixel*Frame) : 0.103
Stream size : 316 MiB (88%)
Writing library : x264 core 148 r2705 3f5ed56
Encoding settings : cabac=1 / ref=8 / deblock=1:0:0 / analyse=0x3:0x113 / me=umh / subme=9 / psy=1 / psy_rd=1.00:0.00 / mixed_ref=1 / me_range=24 / chroma_me=1 / trellis=1 / 8x8dct=1 / cqm=0 / deadzone=21,11 / fast_pskip=1 / chroma_qp_offset=-2 / threads=6 / lookahead_threads=1 / sliced_threads=0 / nr=0 / decimate=1 / interlaced=0 / bluray_compat=0 / constrained_intra=0 / bframes=5 / b_pyramid=2 / b_adapt=2 / b_bias=0 / direct=3 / weightb=1 / open_gop=0 / weightp=2 / keyint=250 / keyint_min=25 / scenecut=40 / intra_refresh=0 / rc_lookahead=60 / rc=crf / mbtree=1 / crf=21.0 / qcomp=0.60 / qpmin=0 / qpmax=69 / qpstep=4 / ip_ratio=1.40 / aq=2:1.00
Encoded date : UTC 2017-01-13 01:47:32
Tagged date : UTC 2017-01-13 01:47:38
Audio
ID : 2
Format : AAC
Format/Info : Advanced Audio Codec
Format profile : LC
Codec ID : 40
Duration : 59 min 0 s
Bit rate mode : Variable
Bit rate : 96.0 kb/s
Maximum bit rate : 119 kb/s
Channel(s) : 2 channels
Channel positions : Front: L R
Sampling rate : 48.0 kHz
Frame rate : 46.875 FPS (1024 spf)
Compression mode : Lossy
Stream size : 40.5 MiB (11%)
Title : BBC.Sword.Musket.Machine.Gun.Britains.Armed.History.2of3.The.Big.Bang.WebRip.x264-MCTV.aac#audio – Imported with GPAC 0.5.0-rev
Encoded date : UTC 2017-01-13 01:47:37
Tagged date : UTC 2017-01-13 01:47:38
Text
ID : 3
Format : Timed Text
Muxing mode : sbtl
Codec ID : tx3g
Duration : 58 min 30 s
Bit rate mode : Variable
Bit rate : 101 b/s
Stream size : 43.4 KiB (0%)
Title : BBC.Sword.Musket.Machine.Gun.Britains.Armed.History.2of3.The.Big.Bang.WebRip.x264-MCTV.srt:hdlr=sbtl:lang=en:group=2:layer=-1 – Imported with GPAC 0.5.0-rev
Language : English
Default : Yes
Forced : No
Alternate group : 2
Encoded date : UTC 2017-01-13 01:47:38
Tagged date : UTC 2017-01-13 01:47:38
Files:
BBC.Sword.Musket.Machine.Gun.Britains.Armed.History.2of3.The.Big.Bang.WebRip.x264-MCTV
BBC.Sword.Musket.Machine.Gun.Britains.Armed.History.2of3.The.Big.Bang.WebRip.x264-MCTV.mp4 (358.2 MB)
English.srt (73.7 KB)
MulvaCodedTV.jpg (30.3 KB)

Alphas Season 1 (2011) DVD – Cool Release

Download Alphas Season 1 (2011) DVD – Cool Release

Alphas Season 1 (2011) Info:
Alphas introduces us to a team of ordinary citizens whose brain anomalies imbue them with extraordinary mental and physical abilities. Taking the law into their own hands, the unlikely group, led by Dr. Lee Rosen (Strathairn), investigates cases that suggest other Alpha activity to uncover what the CIA, FBI and Pentagon have not been able, or willing, to solve. These gifted individuals must balance their quirky personalities and disparate backgrounds with their not always visible powers as they work to solve crimes, stop the ticking time bomb and save the world.
Sn1 Ep1 – Pilot
Ominous messages steer a man to a building’s rooftop, where he executes an improbable shooting in the opener of the series following a team of people with extraordinary abilities who investigate crimes linked to others like them.
Sn1 Ep2 – Cause & Effect
A problematic former patient of Rosen’s escapes as Rosen is getting acquainted with his Department of Defense liaison, and the rest of the team tries to balance their normal lives with their work as Alphas.
Sn1 Ep3 – Anger Management
The team moves to new offices following the attack on Rosen- violent riots break out on the east coast, which are linked to a runaway teen.
Sn1 Ep4 – Rosetta
Rosen and his team move against a Red Flag stronghold, and they find an autistic woman who helps expose a plot to launch a terrorist attack that could change things for the Alphas.
Sn1 Ep5 – Never Let Me Go
Rachel goes on a date that ends with a powerful kiss- Rosen’s team officially joins the Defense Criminal Investigation Service, and their first case is to probe a series of deaths linked to a high school in Pennsylvania.
Sn1 Ep6 – Billy and Gary’s Excellent adventure
Gary and Bill take an outside case, which puts their powers to the test.
Sn1 Ep7 – Catch and Release
The team must locate and protect Skylar, an Alpha whose inventions could be dangerous in the wrong hands.
Sn1 Ep8 – A short time in Paradise
A dangerous Alpha cult leader bewitches Hicks and Nina.
Sn1 Ep9 – Blind spot
Nina and Hicks go undercover to investigate an obstetrician (Brent Spiner) with suspected ties to Red Flag, and they uncover a medical experiment that could be detrimental to future Alphas.
Sn1 Ep10 – The Unusual Suspects
The Alphas are detained at the Binghamton facility after one of them is suspected of being a Red Flag agent.
Sn1 Ep11 – Original Sin
Red Flag escalates the war on the Department of Defense under the leadership of Stanton Parish (John Pyper-Ferguson).
TV Show Video Info
Video Format: Avi, (Xvid)
Audio Format: Mp3
Language: English
Framerate: 23.976 fps
Resolution: 624 x 352
Source: DVD
Size Per Video: Ep1 549 MB & Ep2-11 349 MB
Total Size: 3.95 Gig
How to Play TV Show Instructions
You can Play This TV Show with any Video Player but if you dont have any you can download, VLC media player. VLC media player is a highly portable multimedia player for various audio and video formats as well as DVDs, VCDs, and various streaming protocols without external codec or program. Done Enjoy!
For Cool Downloads Head Over To My Site
http://coolrelease.net
Files:
Alphas Sn1 Ep7 – Catch and Release, DVD – Cool Release.avi (350.0 MB)
Alphas Sn1 Ep6 – Billy and Gary’s Excellent adventure, DVD – Cool Release.avi (349.9 MB)
Alphas Sn1 Ep8 – A short time in Paradise, DVD – Cool Release.avi (349.9 MB)
Alphas Sn1 Ep9 – Blind spot, DVD – Cool Release.avi (350.0 MB)
coolrelease.net (0.0 KB)
Alphas Sn1 Ep5 – Never Let Me Go, DVD – Cool Release.avi (350.0 MB)
Alphas Sn1 Ep4 – Rosetta, DVD – Cool Release.avi (350.0 MB)
Alphas Sn1 Ep10 – The Unusual Suspects, DVD – Cool Release.avi (350.0 MB)
Alphas Sn1 Ep11 – Original Sin, DVD – Cool Release.avi (350.0 MB)
Alphas Sn1 Ep2 – Cause & Effect, DVD – Cool Release.avi (350.0 MB)
Alphas Sn1 Ep3 – Anger Management, DVD – Cool Release.avi (350.0 MB)
Alphas Sn1 Ep1 – Pilot, DVD – Cool Release.avi (549.9 MB)

The.Simpsons.S28E16.720p.HDTV.x264-SVA[eztv]

Download The.Simpsons.S28E16.720p.HDTV.x264-SVA[eztv]

EZTV – TV Shows: https://eztv.ag
The.Simpsons.S28E16.720p.HDTV.x264-SVA[eztv]
When Bart and Lisa return home abruptly after a traumatic incident at Kamp Krustier, they put an end to Homer and Marge’s romantic encounters. Without sex to distract him, Homer becomes a more productive worker and caring husband, but Marge misses the old Homer. Then, Bart and Lisa return to camp to confront the source of their trauma.
https://eztv.ag/ep/208080/the-simpsons-s28e16-720p-hdtv-x264-sva/
Files:
The.Simpsons.S28E16.720p.HDTV.x264-SVA[eztv].mkv (449.3 MB)

Download Border Security The Force … Behind the Line [20-08-2014] {OZFox42}

Download Border Security The Force … Behind the Line [20-08-2014] {OZFox42}

Border Security The Force: Behind the Line
Brief synopsis:
Border Security: Australia’s Front Line is an Australian factual television program that airs on the Seven Network. The show follows the work of officers of Australian Customs and Border Protection, the Australian Quarantine and Inspection Service, and the Department of Immigration and Citizenship as they enforce Australian customs, quarantine, immigration and finance laws. It also shows scenes from Sydney mail centre.
Most of the programme is filmed at Sydney and Melbourne airports. Occasionally, the program features other locations such as Brisbane Airport, Perth Airport, seaports, international mail centres, raids on workplaces suspected of employing persons contrary to the restrictions of their visa or immigrant status and the work of Customs vessels and aircraft in the waters of Northern Australia.

The Force: Behind the Line is an Australian documentary television series about the Western Australia Police and the New South Wales Police, hosted by Simon Reeve and aired nationally on the Seven Network from 22 August 2006. Similarly to Border Security: Australia’s Front Line and the American Cops series, each episode intermixes three or four investigations per episode.
2 shows in a single video file!
Type: TV Rip
Video format: MPEG-4 (MP4)
Audio format: AAC 2ch stereo
Approximate total runtime: 44 minutes
Genre: Crime, Drama, Entertainment
Australian air date: 20th August, 2014
Encoded: 21st August, 2014
(commercials and promos removed)
includes MPC-HC thumbs
* please seed as much as possible after downloading to help keep this alive *
NOTE: Border Security is the ‘bonus’ episode in this torrent. The Force: Behind the Line is the ‘main’ program.
Files:
X02. Border Security The Force … Behind the Line [20-08-2014].mp4 (1.0 GB)
X02. Border Security The Force … Behind the Line [20-08-2014].mp4_thumbs_[2014.10.08_00.51.53].png (883.3 KB)

Download Border-Security-The-Force-Behind-the-Line-20-08-2014-OZFox42 torrent. 1.05 GB; File Count: 2016-05-13; Update krøniken a.k.a.better times (dvd 5) dd5.1 dvd5 pal multisubs Time: Border Security: Border Security: Australia’s Front Line is me and my girlfriend 3 2012 an Australian factual television program that border security the force .. behind the line [20-08-2014] {ozfox42} airs. Download Border Security The Force Behind the Line 20-08-2014 OZFox42 Torrent in HD Quality and All Border Security The Force Behind the Line full.frontal.with.samantha.bee.s02e02.720p.hdtv.x264-esc – [srigga] 20-08.

The.Walking.Dead.S07E09.HDTV.x264-FUM[eztv]

Download The.Walking.Dead.S07E09.HDTV.x264-FUM[eztv]

EZTV – TV Shows: https://eztv.ag
The.Walking.Dead.S07E09.HDTV.x264-FUM[eztv]
Rick is introduced to a new community.
https://eztv.ag/ep/197174/the-walking-dead-s07e09-hdtv-x264-fum/
Files:
The.Walking.Dead.S07E09.HDTV.x264-FUM[eztv].mp4 (654.3 MB)

Download BBC Biggest Band Break Ups and Make Ups 2015 WebRip x264-MCTV

Download BBC Biggest Band Break Ups and Make Ups 2015 WebRip x264-MCTV

0; 205; 0; BBC.Biggest.Band.Break.Ups.and.Make.Ups.2015.WebRip.x264-MCTV.mp4. Download the BBC.Biggest.Band.Break.Ups.and.Make.Ups.2015.WebRip.x264-MCTV Torrent aladdin {s01e39} – the secret of dagger rock 1994 [dual audio – hindi-english] [uj.rip] or BBC.Biggest.Band.Break.Ups.and.Make.Ups.2015.WebRip.x264-MCTV. BBC Biggest Band Break Ups and Make Ups 2015 WebRip x264 MCTV. BBC Biggest Band Break Ups and Make Ups 2015 britpop at the bbc 2014 webrip x264-mctv WebRip x264-MCTV.torrent 토렌트,마그넷,파일,자료,공유,영화,드라마,오락,스포츠. BBC Biggest Band Break Ups and Make Ups 2015 Release info : BBC Biggest Band Break Ups and Make Ups 2015 bbc biggest band break ups and make ups 2015 webrip x264-mctv WebRip x264-MCTV. Download orange is the new black .s1.[2013].x264.dvdrip.wbonus the BBC Biggest Band Break Ups and Make Ups 2015 WebRip x264-MCTV Torrent or choose other BBC Biggest Band the daily show 2017.03.08 (720p-hdtv-x264-crooks)[vtv] Break Ups and Make Ups 2015 WebRip x264. BBC.Biggest.Band.Break.Ups.and.Make.Ups.2015.WebRip.x264-MCTV 10 torrent download locations glodls.to BBC bbc biggest band break ups and make ups 2015 webrip x264-mctv Biggest Band Break Ups and Make Ups 2015 WebRip.

BBC Biggest Band Break Ups and Make Ups 2015 WebRip x264-MCTV
http://bbc.co.uk/programmes/b05q472d
Airdate : 10 Apr 2015
Biggest Band Break Ups and Make Ups
Mark Radcliffe looks at the highs and lows of band life – the creative tension that produces great music and the pressures that come with success and fame, which pulls many apart.
English subtitles included.
Screenshots
Click to enlarge
Format : MPEG-4
Format profile : Base Media
Codec ID : isom (isom/avc1)
File size : 317 MiB
Duration : 59 min 0 s
Overall bit rate mode : Variable
Overall bit rate : 750 kb/s
Encoded date : UTC 2017-01-09 00:57:13
Tagged date : UTC 2017-01-09 00:57:13
Video
ID : 1
Format : AVC
Format/Info : Advanced Video Codec
Format profile : [email protected]
Format settings, CABAC : Yes
Format settings, ReFrames : 8 frames
Codec ID : avc1
Codec ID/Info : Advanced Video Coding
Duration : 59 min 0 s
Bit rate : 650 kb/s
Maximum bit rate : 5 415 kb/s
Width : 720 pixels
Height : 404 pixels
Display aspect ratio : 16:9
Frame rate mode : Constant
Frame rate : 25.000 FPS
Color space : YUV
Chroma subsampling : 4:2:0
Bit depth : 8 bits
Scan type : Progressive
Bits/(Pixel*Frame) : 0.089
Stream size : 274 MiB (87%)
Writing library : x264 core 148 r2705 3f5ed56
Encoding settings : cabac=1 / ref=8 / deblock=1:0:0 / analyse=0x3:0x113 / me=umh / subme=9 / psy=1 / psy_rd=1.00:0.00 / mixed_ref=1 / me_range=24 / chroma_me=1 / trellis=1 / 8x8dct=1 / cqm=0 / deadzone=21,11 / fast_pskip=1 / chroma_qp_offset=-2 / threads=6 / lookahead_threads=1 / sliced_threads=0 / nr=0 / decimate=1 / interlaced=0 / bluray_compat=0 / constrained_intra=0 / bframes=5 / b_pyramid=2 / b_adapt=2 / b_bias=0 / direct=3 / weightb=1 / open_gop=0 / weightp=2 / keyint=250 / keyint_min=25 / scenecut=40 / intra_refresh=0 / rc_lookahead=60 / rc=crf / mbtree=1 / crf=23.0 / qcomp=0.60 / qpmin=0 / qpmax=69 / qpstep=4 / ip_ratio=1.40 / aq=2:1.00
Encoded date : UTC 2017-01-09 00:57:13
Tagged date : UTC 2017-01-09 00:57:19
Audio
ID : 2
Format : AAC
Format/Info : Advanced Audio Codec
Format profile : LC
Codec ID : 40
Duration : 59 min 0 s
Bit rate mode : Variable
Bit rate : 96.0 kb/s
Maximum bit rate : 107 kb/s
Channel(s) : 2 channels
Channel positions : Front: L R
Sampling rate : 48.0 kHz
Frame rate : 46.875 FPS (1024 spf)
Compression mode : Lossy
Stream size : 40.5 MiB (13%)
Title : BBC.Biggest.Band.Break.Ups.and.Make.Ups.2015.WebRip.x264-MCTV.aac#audio – Imported with GPAC 0.5.0-rev
Encoded date : UTC 2017-01-09 00:57:17
Tagged date : UTC 2017-01-09 00:57:19
Text
ID : 3
Format : Timed Text
Muxing mode : sbtl
Codec ID : tx3g
Duration : 58 min 28 s
Bit rate mode : Variable
Bit rate : 113 b/s
Stream size : 48.4 KiB (0%)
Title : BBC.Biggest.Band.Break.Ups.and.Make.Ups.2015.WebRip.x264-MCTV.srt:hdlr=sbtl:lang=en:group=2:layer=-1 – Imported with GPAC 0.5.0-rev
Language : English
Default : Yes
Forced : No
Alternate group : 2
Encoded date : UTC 2017-01-09 00:57:19
Tagged date : UTC 2017-01-09 00:57:19
Files:
BBC.Biggest.Band.Break.Ups.and.Make.Ups.2015.WebRip.x264-MCTV
BBC.Biggest.Band.Break.Ups.and.Make.Ups.2015.WebRip.x264-MCTV.mp4 (316.6 MB)
English.srt (84.5 KB)
MulvaCodedTV.jpg (30.3 KB)

Alpha, Bravo, and Charlie EP9 [Pakistan Drama] ~]SK[~

Download Alpha, Bravo, and Charlie EP9 [Pakistan Drama] ~]SK[~


We have over 2000 registered sites. VIP IT: VIP IT: stephen.colbert.2017.03.08.mark.halperin.and.john.heilemann.720p.web.h264-heat[eztv] Premium Cinema HD. Premium Sport 2 HD alpha, bravo, and charlie ep9 [pakistan drama] ~]sk[~ ( 1080P ) VIP IT: Italia1 HD ( 1080P ) VIP IT:
IMDB:- http://imdb.com/title/tt2298792
:::::::::StoryLine::::::::
As the name indicates, the drama is based on the life and times of three characters — Faraz, Kashif, and Gulsher also known as Alpha, Bravo, and Charlie respectively — and their friendship. These passionate young men wish to start their careers in the Pakistan army. In the initial episodes, ample footage is used to detail the background of every individual and the circumstances under which they enroll for the armed forces. Faraz is Mr Perfect, the guy who does everything right while Gulsher is a polite, simple-minded, shy person. Kashif is originally the funny man responsible for providing most of the comic relief through his antics, pranks and mischief. Eventually the series morphs into a coming-of-age story where the lead characters realize that there is more to life than their present happy-go-lucky lifestyle as they experience reality in all its fragility and extremities — jealousy, heartbreaks, trauma and death. Another important character is Shahnaaz, a confident, educated and well-mannered young lady, who plays an important role in the lives of these friends. Her involvement with them in the role of friend, wife and confidante adds reality to the series that is poignant and touching on a personal level. The main theme of the drama is that every person should lead a purposeful existence and that, if one has the will and the passion, he/she can achieve anything.
:::::::::InFo::::::::
Code:
Format : Matroska at 1 121 Kbps
Length : 349 MiB for 43mn 33s 61ms
Video #0 : AVC
Aspect : 720 x 478 (1.506)
Audio #0 : MPEG Audio
Infos : 2 channels, 48.0 KHz
::::::Screens:::::
http://postimg.org/image/ii8unb32x/
Note:-
*[Seperate Folder] Sample Include..
*If you ask any question Then Please PM me..
*If you like this Drama then you please Purchase DVD…
*Alpha, Bravo, and Charlie EP1 HERE :- http://1337x.org/torrent/735456/Alpha-Bravo-and-Charlie-EP1-Pakistan-Drama-SK/
*Alpha, Bravo, and Charlie EP2 HERE :- http://1337x.org/torrent/735848/Alpha-Bravo-and-Charlie-EP2-Pakistan-Drama-SK/
*Alpha, Bravo, and Charlie EP3 HERE :- http://1337x.org/torrent/736421/Alpha-Bravo-and-Charlie-EP3-Pakistan-Drama-SK/
*Alpha, Bravo, and Charlie EP4 HERE :- http://1337x.org/torrent/736690/Alpha-Bravo-and-Charlie-EP4-Pakistan-Drama-SK/
*Alpha, Bravo, and Charlie EP5&6 HERE :- http://1337x.org/torrent/737242/Alpha-Bravo-and-Charlie-EP5-6-Pakistan-Drama-SK/
*Alpha, Bravo, and Charlie EP7&8 HERE :- http://1337x.org/torrent/739911/Alpha-Bravo-and-Charlie-EP7and8-Pakistan-Drama-SK/
*Always Respect to All http://1337x.org Members.
Files:
abcep9 ~]SK[~.mkv (349.2 MB)
Sample
[SAMPLE]abcep9 ~]SK[~.mkv-.ts (10.4 MB)
Screens
EP9 ~]SK[~ (5).png (410.2 KB)
EP9 ~]SK[~ (3).png (350.3 KB)
EP9 ~]SK[~ (6).png (344.6 KB)
EP9 ~]SK[~ (7).png (338.6 KB)
EP9 ~]SK[~ (10).png (325.2 KB)
EP9 ~]SK[~ (9).png (308.2 KB)
EP9 ~]SK[~ (8).png (307.8 KB)
EP9 ~]SK[~ (2).png (251.4 KB)
EP9 ~]SK[~ (4).png (242.2 KB)
EP9 ~]SK[~ (1).png (52.8 KB)
Respect.txt (0.1 KB)
If you Like.txt (0.1 KB)
Please Don’t.txt (0.1 KB)
Torrent Download From Extratorrent.txt (0.1 KB)

Blue Heelers S07E15

Download Blue Heelers S07E15

Dead For Quids
Episode 7.15 (268)
May 17, 2000
Written by David Anthony
Directed by Steve Mann
A much loved elderly woman dies while under the care of Doc Bourke, an old style country doctor who makes house calls, sets broken legs in paddocks and accepts cuts of meat in lieu of payment. At the reading of the will it is discovered that the elderly women left her considerable estate to Doc Bourke. The disinherited relatives call foul and accuse him of murder. Tom was delivered by Doc Bourke and has regarded him as a hero all his life. PJ has a natural distrust of doctors, especially those who seem to be playing God. Tom and PJ clash as PJ investigate the increasing numbers of claims that the Doc has stepped over the line. For PJ, a copper is someone who swears to uphold the law, no ifs, no buts. Doctors swear to preserve life — there should be no difference between the two. But is there? When does relieving a terminal patient in extreme pain cross the line into a shortening of the patient’s life? And who has the right to decide?
Guest Starring: James Condon as ‘Doc Bourke’, Sarah Kants as Emily Farrow, Alex Papps as Stephen Farrow, Suzi Doherty as Dr Mel Carter, Vic Gordon as Harry Quinn, James Cahill as Simon Rogers, Brenda Palmer as Winifred Starling
(encoded with Handbrake – Blue Heelers – from Complete Eighth Season DVD – the early years)
Duration: approximately 45 minutes
Aspect ratio: 4:3 standard
Audio: linear hi-fi/stereo
Size: 469MB
Video format: MPEG-4 (MP4)
Please seed as much as possible after downloading.
Files:
Blue Heelers S07E15.mp4 (470.0 MB)

Download 1000 Ways to Die (“Season 5”)

Download 1000 Ways to Die (“Season 5”)

Unlike the first four seasons I recorded myself in HD from Hulu, this is from a separate collection not available on that service. Some are faulty in spots and the show jumps the shark about midway through, but in an effort to offer a complete collection I still wanted to offer it.
“Season 5”
Episode 53 – Death – The Gift That Lasts Forever
Episode 54 – Death: One Size Fits All
Episode 55 – Special: Death By Request (The Deathies)
Episode 56 – Deadliest Kitsch
Episode 57 – Grave Decisions: The Halloween Episode
Episode 58 – Dirt Nap
Episode 59 – Death Takes A Vacation
Episode 60 – Wild Wild Death
Episode 61 – Death Penalties
Episode 62 – Die-abestic
Episode 63 – Star Death: The Last Generation
Episode 64 – Death – Putting The “Fun” In “Funeral”
Episode 65 – Sor-Dead Affair
Episode 66 – Locked and Low Dead
Episode 67 – Enter the Ferret
Episode 68 – Think Globally, Die Locally
Episode 69 – Tweets From the Dead
Episode 70 – A New App Called Death
Episode 71 – Death Certificates
Episode 72 – Crying Over Spilled Blood
Episode 73 – It’s a Dead, Dead, Dead World
Episode 74 – Death, The Final Frontier
Files:
Episode 55 – Special – Death By Request (The Deathies).mp4 (436.3 MB)
Episode 67 – Enter The Ferret.mp4 (319.8 MB)
Episode 59 – Death Takes A Vacation.mp4 (309.1 MB)
Episode 57 – Grave Decisions – The Halloween Episode.mp4 (307.3 MB)
Episode 74 – Death, The Final Frontier.mp4 (298.2 MB)
Episode 65 – Sor-Dead Affair.mp4 (296.2 MB)
Episode 63 – Star Death, The Last Generation.mp4 (291.9 MB)
Episode 62 – Die-abestic.mp4 (290.7 MB)
Episode 66 – Locked and Low Dead.mp4 (286.0 MB)
Episode 60 – Wild Wild Death.mp4 (283.2 MB)
Episode 64 – Death, Putting The ‘Fun’ In ‘Funeral’.mp4 (280.4 MB)
Episode 56 – Deadliest Kitsch.mp4 (268.0 MB)
Episode 72 – Crying Over Spilled Blood.mp4 (262.0 MB)
Episode 61 – Death Penalties.mp4 (260.9 MB)
Episode 71 – Death Certificates.mp4 (258.4 MB)
Episode 58 – Dirt Nap.mp4 (255.7 MB)
Episode 53 – Death The Gift That Lasts Forever.mp4 (252.7 MB)
Episode 70 – A New App Called Death.mp4 (248.2 MB)
Episode 69 – Tweets From The Dead.mp4 (244.3 MB)
Episode 54 – Death, One Size Fits All.mp4 (237.2 MB)
Episode 73 – It’s A Dead, Dead, Dead World.mp4 (236.0 MB)
Episode 68 – Think Globally, Die Locally.mp4 (235.1 MB)

Home Grown Video – Cherries 73

Download Home Grown Video – Cherries 73

Cherry game of thrones s03e01 720p aac x265 hevc bluray-khoshmard[utr] mkv Salsa home grown video – cherries 73 with Balsamic Vinegar and Basil. L. Homegrown Video: This size is huge! Seeders: 27 = 79 Peers. Update:
Home Grown Video – Cherries 73
~~~~~~~~~~~~~~~~~~~~~~~~~~~~~
Screenshots:
~~~~~~~~~~~~
Videos Info:
~~~~~~~~~~~~
Size: 1.236 GB
Resolution: 624×464
Files:
Cherries_73-Scene_3-Alexis_Love.avi (313.3 MB)
Cherries_73-Scene_3-Alexis_Love_s.jpg (315.5 KB)
Cherries_73-Scene_4-Kacey_Jordan.avi (277.4 MB)
Cherries_73-Scene_4-Kacey_Jordan_s.jpg (332.3 KB)
Cherries_73-Scene_2-Alyssa_Austin_s.jpg (284.2 KB)
Cherries_73-Scene_2-Alyssa_Austin.avi (324.1 MB)
Cherries_73-Front.jpg (73.9 KB)
Cherries_73-Scene_1-Lexi_Belle.avi (349.4 MB)
Cherries_73-Scene_1-Lexi_Belle_s.jpg (335.3 KB)
Cherries_73-Back.jpg (132.3 KB)

WWE.Raw.10.22.12.x264.HD.Team DON

Download WWE.Raw.10.22.12.x264.HD.Team DON

April 10,. 264 wwe.raw.10.22.12.x264.hd.team don WWE Smack Down vs Raw 2009. Download millions of curious.george.saves.the.day[2012]dvdrip.x264-r3mnants torrents with TV series, movies, music, PC/Playstation/Wii/Xbox. Title United States on the buses season 5 complete[haydees] ,Title WWE Tag Team Titles ,Divas Title, Watch WWE NXT 4/12/17. 105 dallas (2012) season 1 disc 1 MB. 0 / 0 — Video » dr. phil – the mysterious death of jacob limberios .. the polygraph results [30-5-14] {ozfox42} TV .
WWE.Raw.10.22.12.x264.HD.Team DON
Files:
XtremeDoN.CoM.WWE.Raw.10.22.12.x264.HD.Team DON.mp4 (1.2 GB)
Read Me.txt (0.4 KB)

England 2 Scotland 3 1967 DVD

Download England 2 Scotland 3 1967 DVD

Please before you slag it off for quality it was made in 1967 init 😛
Dvd acquired @ Amazon
Files:
VIDEO_TS
VTS_01_3.VOB (1,024.0 MB)
VTS_01_2.VOB (1,024.0 MB)
VTS_01_4.VOB (1,024.0 MB)
VTS_01_1.VOB (1,024.0 MB)
VTS_01_5.VOB (153.4 MB)
VIDEO_TS.VOB (124.0 KB)
VTS_01_0.VOB (124.0 KB)
VTS_01_0.IFO (68.0 KB)
VTS_01_0.BUP (68.0 KB)
VIDEO_TS.IFO (14.0 KB)
VIDEO_TS.BUP (14.0 KB)

Download Deadliest Catch – The Complete Second Season – 3 Disc Set – DVD-R [RLG]

Download Deadliest Catch – The Complete Second Season – 3 Disc Set – DVD-R [RLG]

Sound, deadliest catch – the complete second season – 3 disc set – dvd-r [rlg] color ; 4 3/4 in. Deadliest Catch – Season 4 – detroit.steel.s01e03.hdtv.x264-killers[ettv] 5 Disc Set – DVD-R [RLG] 34864.46 Mb: Details: Deadliest-Catch–The-Complete-Second-Season–3-Disc-Set–DVD-R-[RLG] >> marvels agents of s h i e l d s02e02 720p hdtv x264 aac – ozlem tv shows:.
INFO
http://imdb.com/title/tt0446809/
Video
ID : 224 (0xE0)
Format : MPEG Video
Format version : Version 2
Format profile : [email protected]
Format settings, BVOP : Yes
Format settings, Matrix : Custom
Format settings, GOP : Variable
Format settings, picture st : Frame
Duration : 22mn 50s
Bit rate mode : Variable
Bit rate : 5 917 Kbps
Maximum bit rate : 9 800 Kbps
Width : 720 pixels
Height : 480 pixels
Display aspect ratio : 4:3
Frame rate : 29.970 (30000/1001) fps
Standard : NTSC
Color space : YUV
Chroma subsampling : 4:2:0
Bit depth : 8 bits
Scan type : Interlaced
Scan order : Top Field First
Compression mode : Lossy
Bits/(Pixel*Frame) : 0.571
Time code of first frame : 01:42:43-00
Time code source : Group of pictures header
GOP, Open/Closed : Open
GOP, Open/Closed of first f : Closed
Stream size : 967 MiB (94%)
Audio
ID : 189 (0xBD)-128 (0x80)
Format : AC-3
Format/Info : Audio Coding 3
Mode extension : CM (complete main)
Format settings, Endianness : Big
Muxing mode : DVD-Video
Duration : 22mn 50s
Bit rate mode : Constant
Bit rate : 224 Kbps
Channel(s) : 2 channels
Channel positions : Front: L R
Sampling rate : 48.0 KHz
Frame rate : 31.250 fps (1536 spf)
Compression mode : Lossy
Stream size : 36.6 MiB (4%)
Plot
A documentary series chronicling the real-life high-sea adventures of the Alaskan crab fishermen. This is the most deadly profession in the world.
For Newer Users
Simply Drag downloaded folder to your Media Player. This is a NTSC DVD
This is ripped so you would have best quality, menu, bonus/special feature, language options etc
Note: DVDs may not have have all* featues
Screenshots
Files:
Disc 1
DEADLIEST_CATCH_DISC_1
DEADLIEST_CATCH_DISC_1.dvdid.xml (0.1 KB)
VIDEO_TS
VIDEO_TS.BUP (16.0 KB)
VIDEO_TS.IFO (16.0 KB)
VTS_01_0.BUP (42.0 KB)
VTS_01_0.IFO (42.0 KB)
VTS_01_0.VOB (10.7 MB)
VTS_01_1.VOB (1,024.0 MB)
VTS_01_2.VOB (833.6 MB)
VTS_02_0.BUP (40.0 KB)
VTS_02_0.IFO (40.0 KB)
VTS_02_0.VOB (114.0 KB)
VTS_02_1.VOB (1,024.0 MB)
VTS_02_2.VOB (852.6 MB)
VTS_03_0.BUP (18.0 KB)
VTS_03_0.IFO (18.0 KB)
VTS_03_0.VOB (114.0 KB)
VTS_03_1.VOB (14.0 MB)
VTS_04_0.BUP (18.0 KB)
VTS_04_0.IFO (18.0 KB)
VTS_04_0.VOB (114.0 KB)
VTS_04_1.VOB (183.2 MB)
VTS_05_0.BUP (18.0 KB)
VTS_05_0.IFO (18.0 KB)
VTS_05_0.VOB (114.0 KB)
VTS_05_1.VOB (15.4 MB)
VTS_06_0.BUP (40.0 KB)
VTS_06_0.IFO (40.0 KB)
VTS_06_0.VOB (114.0 KB)
VTS_06_1.VOB (1,024.0 MB)
VTS_06_2.VOB (833.9 MB)
VTS_07_0.BUP (40.0 KB)
VTS_07_0.IFO (40.0 KB)
VTS_07_0.VOB (114.0 KB)
VTS_07_1.VOB (1,024.0 MB)
VTS_07_2.VOB (835.9 MB)
Disc 2
DEADLIEST_CATCH_DISC_2
DEADLIEST_CATCH_DISC_2.dvdid.xml (0.1 KB)
VIDEO_TS
VIDEO_TS.BUP (14.0 KB)
VIDEO_TS.IFO (14.0 KB)
VTS_01_0.BUP (44.0 KB)
VTS_01_0.IFO (44.0 KB)
VTS_01_0.VOB (8.9 MB)
VTS_01_1.VOB (1,024.0 MB)
VTS_01_2.VOB (774.4 MB)
VTS_02_0.BUP (42.0 KB)
VTS_02_0.IFO (42.0 KB)
VTS_02_0.VOB (114.0 KB)
VTS_02_1.VOB (1,024.0 MB)
VTS_02_2.VOB (774.3 MB)
VTS_03_0.BUP (18.0 KB)
VTS_03_0.IFO (18.0 KB)
VTS_03_0.VOB (114.0 KB)
VTS_03_1.VOB (183.2 MB)
VTS_04_0.BUP (42.0 KB)
VTS_04_0.IFO (42.0 KB)
VTS_04_0.VOB (114.0 KB)
VTS_04_1.VOB (1,024.0 MB)
VTS_04_2.VOB (777.5 MB)
VTS_05_0.BUP (40.0 KB)
VTS_05_0.IFO (40.0 KB)
VTS_05_0.VOB (114.0 KB)
VTS_05_1.VOB (1,024.0 MB)
VTS_05_2.VOB (746.0 MB)
VTS_06_0.BUP (18.0 KB)
VTS_06_0.IFO (18.0 KB)
VTS_06_0.VOB (114.0 KB)
VTS_06_1.VOB (14.0 MB)
VTS_07_0.BUP (18.0 KB)
VTS_07_0.IFO (18.0 KB)
VTS_07_0.VOB (114.0 KB)
VTS_07_1.VOB (15.6 MB)
Disc 3
DEADLIEST_CATCH_DISC_3
DEADLIEST_CATCH_DISC_3.dvdid.xml (0.1 KB)
VIDEO_TS
VIDEO_TS.BUP (14.0 KB)
VIDEO_TS.IFO (14.0 KB)
VTS_01_0.BUP (44.0 KB)
VTS_01_0.IFO (44.0 KB)
VTS_01_0.VOB (8.9 MB)
VTS_01_1.VOB (1,024.0 MB)
VTS_01_2.VOB (843.7 MB)
VTS_02_0.BUP (40.0 KB)
VTS_02_0.IFO (40.0 KB)
VTS_02_0.VOB (114.0 KB)
VTS_02_1.VOB (1,024.0 MB)
VTS_02_2.VOB (837.0 MB)
VTS_03_0.BUP (42.0 KB)
VTS_03_0.IFO (42.0 KB)
VTS_03_0.VOB (114.0 KB)
VTS_03_1.VOB (1,024.0 MB)
VTS_03_2.VOB (840.4 MB)
VTS_04_0.BUP (40.0 KB)
VTS_04_0.IFO (40.0 KB)
VTS_04_0.VOB (114.0 KB)
VTS_04_1.VOB (1,024.0 MB)
VTS_04_2.VOB (836.1 MB)
VTS_05_0.BUP (18.0 KB)
VTS_05_0.IFO (18.0 KB)
VTS_05_0.VOB (114.0 KB)
VTS_05_1.VOB (15.4 MB)
VTS_06_0.BUP (18.0 KB)
VTS_06_0.IFO (18.0 KB)
VTS_06_0.VOB (114.0 KB)
VTS_06_1.VOB (14.0 MB)
VTS_07_0.BUP (18.0 KB)
VTS_07_0.IFO (18.0 KB)
VTS_07_0.VOB (114.0 KB)
VTS_07_1.VOB (183.2 MB)

The Complete Third Season Catch The Complete deadliest catch – the complete second season – 3 disc set – dvd-r [rlg] Second Season 3 DVD Set. Deadliest the.first.48.s16e13.hdtv.x264-w4f – [srigga] Catch – Second Season – 3 Disc Set Info :

Download Colony.S02E09.720p.HDTV.x264-SVA[eztv]

Download Colony.S02E09.720p.HDTV.x264-SVA[eztv]


24 Apr 2017: Search results for colony torrents (1-50 colony.s02e09.720p.hdtv.x264-sva[eztv] of 447) 21 Apr 2017: Colony_[Verified].rar: Colony direct download: Added Title davy crockett s01e01-03 (complete) 1954 [2 dvd5 eng] tnt village Size RTS S L DL. Search results for colony torrents (1-50 of 448) 24 Apr 2017: 21 Apr 2017:

EZTV – TV Shows: https://eztv.ag
Colony.S02E09.720p.HDTV.x264-SVA[eztv]
Will and Katie attempt to make contact with a new arrival in the bloc- Bob has some questions for the Bowman family.
https://eztv.ag/ep/213211/colony-s02e09-720p-hdtv-x264-sva/
Files:
Colony.S02E09.720p.HDTV.x264-SVA[eztv].mkv (898.9 MB)

Added Title colony.s02e09.720p.hdtv.x264-sva[eztv] Size RTS S L DL. Colony direct hannibal s02e03 hdtv x264 [vector & dexzaery] download: 24 Apr 2017:

How i met your mother Season 8 Complete HDTV

Download How i met your mother Season 8 Complete HDTV

TV the vampire diaries seizoen 4 dd5.1 dvd 4 ned subs Show “Luke Cage” can be found on our how i met your mother season 8 complete hdtv website. 5.72 GB: 4 hours ago ‘Fate of the Furious’ Blasting to $534. Home Contact Terms Privacy. Hoi.
The complete Season 8 of HIMYM
Files:
How.I.Met.Your.Mother.S08E11E12.HDTV.x264-LOL.[VTV].mp4 (262.6 MB)
How.I.Met.Your.Mother.S08E23.HDTV.x264-LOL.mp4 (231.3 MB)
How.I.Met.Your.Mother.S08E16.HDTV.x264-LOL.[VTV].mp4 (187.6 MB)
How.I.Met.Your.Mother.S08E24.HDTV.x264-LOL.mp4 (179.8 MB)
How.I.Met.Your.Mother.S08E04.HDTV.x264-LOL.[VTV].mp4 (175.2 MB)
How.I.Met.Your.Mother.S08E01.HDTV.x264-LOL.[VTV].mp4 (175.0 MB)
How.I.Met.Your.Mother.S08E14.HDTV.x264-LOL.mp4 (174.6 MB)
how.i.met.your.mother.820.hdtv-lol.mp4 (172.3 MB)
How.I.Met.Your.Mother.S08E13.HDTV.x264-LOL.[VTV].mp4 (170.4 MB)
how.i.met.your.mother.819.hdtv-lol.mp4 (170.1 MB)
How.I.Met.Your.Mother.S08E21.HDTV.x264-LOL.mp4 (170.0 MB)
How.I.Met.Your.Mother.S08E15.HDTV.x264-LOL.mp4 (168.5 MB)
How.I.Met.Your.Mother.S08E08.HDTV.x264-LOL.mp4 (167.1 MB)
How.I.Met.Your.Mother.S08E18.HDTV.x264-LOL.mp4 (165.7 MB)
How.I.Met.Your.Mother.S08E22.HDTV.x264-LOL.mp4 (165.5 MB)
How.I.Met.Your.Mother.S08E05.HDTV.x264-LOL.[VTV].mp4 (165.5 MB)
How.I.Met.Your.Mother.S08E17.HDTV.x264-LOL.mp4 (164.7 MB)
How.I.Met.Your.Mother.S08E06.HDTV.x264-LOL.[VTV].mp4 (163.0 MB)
How.I.Met.Your.Mother.S08E03.HDTV.x264-LOL.mp4 (162.7 MB)
how.i.met.your.mother.807.hdtv-lol.mp4 (160.9 MB)
How.I.Met.Your.Mother.S08E02.HDTV.x264-LOL.mp4 (159.9 MB)
How.I.Met.Your.Mother.S08E09.HDTV.x264-LOL.[VTV].mp4 (152.1 MB)
how.i.met.your.mother.810.hdtv-lol.mp4 (133.0 MB)
How.I.Met.Your.Mother.S08E12.The.Final.Page.Part.Two.480p.WEB-DL.x264-mSD.mkv (108.9 MB)

Download outsiders 2016 s02e07 1080p web hevc x265-rmteam 24 (complete series) free: The leading information resource for the entertainment industry. Latest episodes available for free download. Home Contact Terms Privacy. 12.08.2013 · Eingebettetes Video · How I Met Your Mother Season 8 Season 8 Episode 23 Something Old s8e23 HDTV Dailymotion, you are giving your …. You can download the great indoors 1×15 (720p-hdtv-x264-fleet)[vtv] Luke how i met your mother season 8 complete hdtv Cage Season 1 here at TopTvShows.Net.

Under the Dome S01 Complete Season 480p HDTV x264 – VYTO [P2PDL]

Download Under the Dome S01 Complete Season 480p HDTV x264 – VYTO [P2PDL]

Torrentz will always under the dome s01 complete season 480p hdtv x264 – vyto [p2pdl] love you. .Farewell. nick.cannon.presents.wild.n.out.s08e12.k.michelle.antonio.cromartie.flo.rida.hdtv.x264-crimson – [srigga]
Under the Dome S01 Complete Season 480p HDTV x264 – VYTO
Quote:
Genre: Drama Horror Mystery
Plot: An invisible and mysterious force field descends upon a small fictional town in the United States, trapping
residents inside, cut off from the rest of civilization. The trapped townsfolk must discover the secrets and purpose
of the “dome” and its origins, while coming to learn more than they ever knew about each other.
Creator: Brian K. Vaughan
Stars: Mike Vogel, Rachelle Lefevre, Natalie Martinez
Info:
http://imdb.com/title/tt1553656/
Format: MPEG-4
File size: 130 – 150 Mib (Per Episode) 1.74 GiB for 13 Episodes
Duration: 45 mn (Per Epsiode) 9hr 04mn 23s for 13 Episodes
Overall Bitrate: 440-460 Kbps
Language: English
Screenshots:
—————————————————————————————————-
Quote:
Encoded using revolutionary 10bit encoding, which enables us to provide you more crispier
and sharper images at small sizes, just make sure you follow our instructions without a fault.
Recommend to you to use latest version of VLC player. Install K-Lite Codec Pack or shark007 codecs
in case of any kind of problem in playback (For non-VLC Media Player users). Alternatively, install
Core AVC codecs, the fastest decoder that there is coupled with Community Center Codec Pack and play
on Windows Media Player Classic. Check sample to be sure.
Enjoy!
Encoder Notes: Looking For Early Access To Anything You Can Provide DVDScr, R5, DVDR, BluRay, Direct
Audio, Music Releases and Seedboxes. We require dedicated servers, so as to do more and fast releases of movies.
If You Got anything to offer contact us at “[email protected]”.
Files:
Torrent downloaded from P2PDL.com.txt (0.0 KB)
Under the Dome S01E01 480p WEBRip x264 – VYTO.mp4 (135.3 MB)
Under the Dome S01E02 480p WEBRip x264 – VYTO.mp4 (133.2 MB)
Under the Dome S01E03 480p WEBRip x264 – VYTO.mp4 (133.1 MB)
Under the Dome S01E04 480p HDTV x264 – VYTO.mp4 (133.7 MB)
Under the Dome S01E05 480p HDTV x264 – VYTO.mp4 (135.6 MB)
Under the Dome S01E06 480p HDTV x264 – VYTO.mp4 (130.5 MB)
Under the Dome S01E07 480p HDTV x264 – VYTO.mp4 (135.4 MB)
Under the Dome S01E08 480p HDTV x264 – VYTO.mp4 (140.0 MB)
Under the Dome S01E09 480p HDTV x264 – VYTO.mp4 (143.2 MB)
Under the Dome S01E10 480p HDTV x264 – VYTO.mp4 (140.6 MB)
Under the Dome S01E11 480p HDTV x264 – VYTO.mp4 (139.3 MB)
Under the Dome S01E12 480p HDTV x264 – VYTO.mp4 (147.5 MB)
Under the Dome S01E13 480p HDTV x264 – VYTO.mp4 (139.8 MB)

Smallville 480p BluRay x264 Complete Season 9

Download Smallville 480p BluRay x264 Complete Season 9

info: http://720pmkv.com/smallville-480p-bluray-x264-complete-season-9/
Files:
[720pMkv.Com]_Smallville.S09E11.480p.BluRay.x264-GAnGSteR.mp4 (457.2 MB)
[720pMkv.Com]_Smallville.S09E09.480p.BluRay.x264-GAnGSteR.mp4 (231.5 MB)
[720pMkv.Com]_Smallville.S09E16.480p.BluRay.x264-GAnGSteR.mp4 (231.4 MB)
[720pMkv.Com]_Smallville.S09E20.480p.BluRay.x264-GAnGSteR.mp4 (231.4 MB)
[720pMkv.Com]_Smallville.S09E07.480p.BluRay.x264-GAnGSteR.mp4 (231.4 MB)
[720pMkv.Com]_Smallville.S09E18.480p.BluRay.x264-GAnGSteR.mp4 (231.4 MB)
[720pMkv.Com]_Smallville.S09E10.480p.BluRay.x264-GAnGSteR.mp4 (231.3 MB)
[720pMkv.Com]_Smallville.S09E19.480p.BluRay.x264-GAnGSteR.mp4 (231.3 MB)
[720pMkv.Com]_Smallville.S09E03.480p.BluRay.x264-GAnGSteR.mp4 (231.3 MB)
[720pMkv.Com]_Smallville.S09E13.480p.BluRay.x264-GAnGSteR.mp4 (231.2 MB)
[720pMkv.Com]_Smallville.S09E14.480p.BluRay.x264-GAnGSteR.mp4 (231.2 MB)
[720pMkv.Com]_Smallville.S09E04.480p.BluRay.x264-GAnGSteR.mp4 (231.2 MB)
[720pMkv.Com]_Smallville.S09E17.480p.BluRay.x264-GAnGSteR.mp4 (231.1 MB)
[720pMkv.Com]_Smallville.S09E21.480p.BluRay.x264-GAnGSteR.mp4 (231.1 MB)
[720pMkv.Com]_Smallville.S09E12.480p.BluRay.x264-GAnGSteR.mp4 (231.0 MB)
[720pMkv.Com]_Smallville.S09E15.480p.BluRay.x264-GAnGSteR.mp4 (231.0 MB)
[720pMkv.Com]_Smallville.S09E05.480p.BluRay.x264-GAnGSteR.mp4 (230.9 MB)
[720pMkv.Com]_Smallville.S09E02.480p.BluRay.x264-GAnGSteR.mp4 (230.8 MB)
[720pMkv.Com]_Smallville.S09E01.480p.BluRay.x264-GAnGSteR.mp4 (230.7 MB)
[720pMkv.Com]_Smallville.S09E06.480p.BluRay.x264-GAnGSteR.mp4 (230.4 MB)
[720pMkv.Com]_Smallville.S09E08.480p.BluRay.x264-GAnGSteR.mp4 (229.8 MB)

Doctor Who 2005 Season 1 Complete DVDRip x264 MKV [VectoR]

Download Doctor Who 2005 Season 1 Complete DVDRip x264 MKV [VectoR]

Doctor Who 2005 Season 1 Complete DVDRip x264 MKV [VectoR]
————————————-
Doctor Who 2005 – SEASON 1
————————————-
Episodes 1-13
Source: DVD Rip
SUBTITLES: External Subrip srt.
Size : 130MB(each episode)
Format : Matroska
Width : 640 pixels
Height : 352 pixels
Display aspect ratio : 16:9
Frame rate mode : Constant
Frame rate : 29.970 fps
Color space : YUV
Chroma subsampling : 4:2:0
Bit depth : 8 bits
Scan type : Progressive
Format : AAC
Format/Info : Advanced Audio Codec
Format profile : LC
Codec ID : A_AAC
Files:
Doctor.Who.2005-s01e08.Fathers.Day.mkv (130.8 MB)
Doctor.Who.2005-s01e07.The.Long.Game.mkv (130.8 MB)
Doctor.Who.2005-s01e11.Boom.Town.mkv (130.8 MB)
Doctor.Who.2005-s01e06.Dalek.mkv (130.7 MB)
Doctor.Who.2005-s01e10.The.Doctor.Dances.mkv (130.7 MB)
Doctor.Who.2005-s01e02.The.End.of.the.World.mkv (130.6 MB)
Doctor.Who.2005-s01e12.Bad.Wolf.mkv (130.6 MB)
Doctor.Who.2005-s01e09.The.Empty.Child.mkv (130.6 MB)
Doctor.Who.2005-s01e13.The.Parting.of.the.Ways.mkv (130.6 MB)
Doctor.Who.2005-s01e05.World.War.III.mkv (130.6 MB)
Doctor.Who.2005-s01e01.Rose.mkv (130.6 MB)
Doctor.Who.2005-s01e03.The.Unquiet.Dead.mkv (130.5 MB)
Doctor.Who.2005-s01e04.Aliens.of.London.mkv (130.5 MB)
VectoR ReLeases.jpg (1.2 MB)
Doctor.Who.2005-s01e07.The.Long.Game.srt (177.2 KB)
Doctor.Who.2005-s01e11.Boom.Town.srt (148.6 KB)
Doctor.Who.2005-s01e04.Aliens.of.London.srt (116.0 KB)
Doctor.Who.2005-s01e01.Rose.srt (112.8 KB)
Doctor.Who.2005-s01e12.Bad.Wolf.srt (53.8 KB)
Doctor.Who.2005-s01e10.The.Doctor.Dances.srt (52.0 KB)
Doctor.Who.2005-s01e13.The.Parting.of.the.Ways.srt (41.9 KB)
Doctor.Who.2005-s01e09.The.Empty.Child.srt (41.0 KB)
Doctor.Who.2005-s01e05.World.War.III.srt (40.1 KB)
Doctor.Who.2005-s01e08.Fathers.Day.srt (40.0 KB)
Doctor.Who.2005-s01e03.The.Unquiet.Dead.srt (39.7 KB)
Doctor.Who.2005-s01e06.Dalek.srt (39.2 KB)
Doctor.Who.2005-s01e02.The.End.of.the.World.srt (39.0 KB)
Torrent Site Info
Torrent Downloaded From ExtraTorrent.com.txt (0.3 KB)
Torrent Downloaded from digtorrent.org.txt (0.0 KB)
Torrent Downloaded from kat.ph.txt (0.0 KB)
Torrent Downloaded From divxhunt.me.txt (0.0 KB)
Torrent Downloaded From BTScene.eu.txt (0.0 KB)
Torrent Downloaded From P2pdl.com.txt (0.0 KB)
Torrent downloaded from 1337x.org.txt (0.0 KB)
tracked_by_h33t_com.txt (0.0 KB)
If You Like My Work Then Like Me On Facebook.txt (0.3 KB)

1 day 955 MB 67 17 Doctor Who 2005 Season 5-6 Batman The Animated Series DvDRip x264 Complete Doctor.Who.2005.S10E02.720p.HDTV.x264-FoV.[VTV].mkv. Dawn of not safe for work uk s01e05 hdtv x264-tla the Planet of the Apes. 07.12.2012 · Doctor Who doctor who 2005 season 1 complete dvdrip x264 mkv [vector] (2005) Season 1 Complete 480p MKV 150MB Hindi DVDRip with English Subtitle Released: mtv uncensored sports illustrated swimsuit issue 2001 Added Title Size RTS S L DL Subcat; 24 Apr 2017: